Вы используете незарегистрированную версию компонента "Вкладки"!

Поиск

2014 Kahil El'Zabar Ritual Trio & Dwight Trible - Going To Chicago at Banlieues Bleues Festival [HDTV 1080p]

2014 Kahil El'Zabar Ritual Trio & Dwight Trible - Going To Chicago at Banlieues Bleues Festival [HDTV 1080p]
Дата проведения концерта (записи):
14 марта 2014
Место проведения:
Festival Banlieues Bleues
Время звучания:
00:59:16
Состав:
  • Kahil El'Zabar - percussion, voix
  • Ari Brown - sax, claviers
  • Junis Paul - basse
  • Dwight Trible - voix
Описание:

Качество: HDTV 1080р
Контейнер: MP4
Видео кодек: H.264
Аудио кодек: AAC
Видео: 1920x1080 (16:9), 25.00 fps, AVC, 11.3 Мбит, 0.217 bits/pixel
Аудио: 48.0 KHz, AAC-LC, 2 ch, stereo, 384 Kbps

Отчёт DVDInfo/MediaInfo/BDInfo
Полное имя : C:\Users\Валера\Videos\MY MUSIC\Kahil El'Zabar & Dwight Trible - FBB -[2014]-\Kahil El'Zabar Ritual Trio & Dwight Trible - Festival Banlieues Bleues 2014.mp4
Формат : MPEG-4
Профиль формата : Base Media / Version 2
Идентификатор кодека : mp42
Размер файла : 4,85 Гбайт
Продолжительность : 59 м.
Режим общего битрейта : Переменный
Общий поток : 11,7 Мбит/сек
Дата кодирования : UTC 2015-04-13 10:54:40
Дата пометки : UTC 2015-04-13 10:54:40

Видео
Идентификатор : 2
Формат : AVC
Формат/Информация : Advanced Video Codec
Профиль формата : Main@L4.0
Параметр CABAC формата : Да
Параметр ReFrames формата : 2 кадра
Параметр GOP формата : M=3, N=30
Идентификатор кодека : avc1
Идентификатор кодека/Информация : Advanced Video Coding
Продолжительность : 59 м.
Продолжительность оригинала : 59 м.
Вид битрейта : Переменный
Битрейт : 11,3 Мбит/сек
Максимальный битрейт : 12,0 Мбит/сек
Ширина : 1920 пикселей
Высота : 1088 пикселей
Высота оригинала : 1080 пикселей
Соотношение сторон : 16:9
Соотношение сторон в оригинале : 16:9
Режим частоты кадров : Переменный
Частота кадров : 25,000 кадров/сек
Частота кадров в оригинале : 12,500 кадров/сек
Минимальная частота кадров : 12,500 кадров/сек
Максимальная частота кадров : 25,000 кадров/сек
Цветовое пространство : YUV
Субдискретизация насыщенности : 4:2:0
Битовая глубина : 8 бит
Тип развёртки : Прогрессивная
Бит/(Пиксели*Кадры) : 0.217
Размер потока : 4,68 Гбайт (97%)
Размер потока оригинала : 4,68 Гбайт (97%)
Язык : English
Дата кодирования : UTC 2015-04-13 10:54:40
Дата пометки : UTC 2015-04-13 10:54:40

Аудио
Идентификатор : 1
Формат : AAC
Формат/Информация : Advanced Audio Codec
Профиль формата : LC
Идентификатор кодека : 40
Продолжительность : 59 м.
Продолжительность оригинала : 59 м.
Вид битрейта : Постоянный
Битрейт : 384 Кбит/сек
Номинальный битрейт : 128 Кбит/сек
Каналы : 2 канала
Расположение каналов : Front: L R
Частота : 48,0 КГц
Метод сжатия : С потерями
Размер потока : 163 Мбайт (3%)
Размер потока оригинала : 163 Мбайт (3%)
Язык : English
Дата кодирования : UTC 2015-04-13 10:54:40
Дата пометки : UTC 2015-04-13 10:54:40
mdhd_Duration : 3556218
Any questions - support@pro-jazz.com. Есть вопросы - support@pro-jazz.com
268
Нет комментариев. Ваш будет первым!