Поиск

2010 Brad Mehldau - Jazz a Vienne [HDTV 1080i]

2010 Brad Mehldau - Jazz a Vienne [HDTV 1080i]
Место проведения:
Théâtre Antique, Vienne, France
Дата издания диска (записи):
29 июня 2010
Время звучания:
00:55:23
Треклист:

1 Bittersweet Symphony
2 Smells like Teen Spirit
3 Teardrop
4 Dream Brother
5 Dis Here
6 Things Behind the Sun

Описание:

Качество: HDTV 1080i
Контейнер: TS
Видео кодек: h.264
Аудио кодек: MPEG2
Видео: 6 307 Kbps, 1920*1080i (16:9), at 25.000 fps, AVC (Main@L4.0) (CABAC / 3 Ref Frames)
Аудио: English, 256 Kbps, 48.0 KHz, 2 channels, MPEG Audio (Version 1) (Layer 2) (Joint stereo / Intensity Stereo + MS Stereo)

Отчёт DVDInfo/MediaInfo/BDInfo
General
ID : 5800 (0x16A8)
Complete name : K:\mezzo live HD_Brad Mehldau - Jazz a Vienne 2010\mezzo live HD_Brad Mehldau - Jazz a Vienne 2010\Brad Mehldau - Jazz A Vienne 2010.ts
Format : MPEG-TS
File size : 2.67 GiB
Duration : 55mn 23s
Overall bit rate : 6 907 Kbps

Video
ID : 2007 (0x7D7)
Menu ID : 3507 (0xDB3)
Format : AVC
Format/Info : Advanced Video Codec
Format profile : Main@L4.0
Format settings, CABAC : Yes
Format settings, ReFrames : 3 frames
Format settings, GOP : M=3, N=30
Codec ID : 27
Duration : 55mn 23s
Bit rate : 6 307 Kbps
Width : 1 920 pixels
Height : 1 080 pixels
Display aspect ratio : 16:9
Frame rate : 25.000 fps
Color space : YUV
Chroma subsampling : 4:2:0
Bit depth : 8 bits
Scan type : MBAFF
Bits/(Pixel*Frame) : 0.122
Stream size : 2.44 GiB (91%)

Audio
ID : 3007 (0xBBF)
Menu ID : 3507 (0xDB3)
Format : MPEG Audio
Format version : Version 1
Format profile : Layer 2
Mode : Joint stereo
Mode extension : Intensity Stereo + MS Stereo
Codec ID : 3
Duration : 55mn 23s
Bit rate mode : Constant
Bit rate : 256 Kbps
Channel(s) : 2 channels
Sampling rate : 48.0 KHz
Compression mode : Lossy
Delay relative to video : -945ms
Stream size : 101 MiB (4%)
Language : English

Menu
ID : 1007 (0x3EF)
Menu ID : 3507 (0xDB3)
Duration : 55mn 23s
List : 2007 (0x7D7) (AVC) / 3007 (0xBBF) (MPEG Audio, English)
Language : / English
Скриншоты видео
2010 Brad Mehldau - Jazz a Vienne [HDTV 1080i] 02010 Brad Mehldau - Jazz a Vienne [HDTV 1080i] 12010 Brad Mehldau - Jazz a Vienne [HDTV 1080i] 22010 Brad Mehldau - Jazz a Vienne [HDTV 1080i] 32010 Brad Mehldau - Jazz a Vienne [HDTV 1080i] 4
По всем вопросам пишите личное сообщение пользователю M0p94ok.
471
Нет комментариев. Ваш будет первым!