Поиск

2011 Omar Sosa, NDR BIG BAND & Jaques Morelenbaum - Ceremony [HDTV 1080p]

2011 Omar Sosa, NDR BIG BAND & Jaques Morelenbaum - Ceremony [HDTV 1080p]
Время звучания:
00:51:59
Треклист:

1. Elegba
2. Chango En Esmeraldas
3. Monkuru
4. Danzon De Tus Ojos
5. Yemaya En Agua Larga
6. Cha Con Marimba
7. Luz En El Cielo
8. Carambara
9. Mi Tradidcion
10.Elegba

Описание:

Omar Sosa, NDR BIG BAND & Jaques Morelenbaum — "Ceremony"
42 Voll-Damm Festival Internacional de Jazz de Barcelona
Recorded at Palau de la Musica Catalana — Barcelone

Качество: HDTVRip 1080р
Контейнер: MKV
Видео кодек: H.264
Аудио кодек: AC3
Видео: Видео: 1920x1080 (16:9), 25.00 fps, AVC, MKV, 7897 Кбит, 0.152 bits/pixel
Аудио: Аудио: 48.0 KHz, AC3, 2 ch, 192 Kbps

Отчёт DVDInfo/MediaInfo/BDInfo
Полное имя : G:\DVD\Omar Sosa (2011)\Omar Sosa NDR BIG BAND & Jaques Morelenbaum - Ceremony.mkv
Формат : Matroska
Размер файла : 3,00 Гбайт
Продолжительность : 51 м.
Общий поток : 8253 Кбит/сек
Программа кодирования : Lavf51.12.1
Библиотека кодирования : Lavf51.12.1

Видео
Идентификатор : 1
Формат : AVC
Формат/Информация : Advanced Video Codec
Профиль формата : Baseline@L4.0
Параметр CABAC формата : Нет
Параметр ReFrames формата : 1 кадр
Идентификатор кодека : V_MPEG4/ISO/AVC
Продолжительность : 51 м.
Битрейт : 7897 Кбит/сек
Ширина : 1920 пикселей
Высота : 1080 пикселей
Соотношение сторон : 16:9
Режим частоты кадров : Постоянный
Частота кадров : 25,000 кадров/сек
Цветовое пространство : YUV
Субдискретизация насыщенности : 4:2:0
Битовая глубина : 8 бит
Тип развёртки : Прогрессивная
Бит/(Пиксели*Кадры) : 0.152
Размер потока : 2,87 Гбайт (96%)
Язык : English / English

Аудио
Идентификатор : 2
Формат : AC-3
Формат/Информация : Audio Coding 3
Расширение режима : CM (complete main)
Идентификатор кодека : A_AC3
Продолжительность : 51 м.
Вид битрейта : Постоянный
Битрейт : 192 Кбит/сек
Каналы : 2 канала
Расположение каналов : Front: L R
Частота : 48,0 КГц
Битовая глубина : 16 бит
Метод сжатия : С потерями
Размер потока : 71,4 Мбайт (2%)
Язык : English / English
Скриншоты видео
2011 Omar Sosa, NDR BIG BAND & Jaques Morelenbaum - Ceremony [HDTV 1080p] 02011 Omar Sosa, NDR BIG BAND & Jaques Morelenbaum - Ceremony [HDTV 1080p] 12011 Omar Sosa, NDR BIG BAND & Jaques Morelenbaum - Ceremony [HDTV 1080p] 22011 Omar Sosa, NDR BIG BAND & Jaques Morelenbaum - Ceremony [HDTV 1080p] 32011 Omar Sosa, NDR BIG BAND & Jaques Morelenbaum - Ceremony [HDTV 1080p] 42011 Omar Sosa, NDR BIG BAND & Jaques Morelenbaum - Ceremony [HDTV 1080p] 52011 Omar Sosa, NDR BIG BAND & Jaques Morelenbaum - Ceremony [HDTV 1080p] 62011 Omar Sosa, NDR BIG BAND & Jaques Morelenbaum - Ceremony [HDTV 1080p] 72011 Omar Sosa, NDR BIG BAND & Jaques Morelenbaum - Ceremony [HDTV 1080p] 82011 Omar Sosa, NDR BIG BAND & Jaques Morelenbaum - Ceremony [HDTV 1080p] 92011 Omar Sosa, NDR BIG BAND & Jaques Morelenbaum - Ceremony [HDTV 1080p] 102011 Omar Sosa, NDR BIG BAND & Jaques Morelenbaum - Ceremony [HDTV 1080p] 112011 Omar Sosa, NDR BIG BAND & Jaques Morelenbaum - Ceremony [HDTV 1080p] 12
Download available for power users only.
470
Нет комментариев. Ваш будет первым!