Поиск

2013 Nils Landgren Funk Unit - At Alfa Jazz Festival [HDTV 1080p]

2013 Nils Landgren Funk Unit - At Alfa Jazz Festival [HDTV 1080p]
Время звучания:
00:59:04
Треклист:

1. My Main Thang
2. Get Serious Get A Job
3. Afriquarius
4. Tracksuit
5. Where The Funk Is Art
6. Papa Bull
7. Rhythm Is Our Business

Описание:

Качество: HDTV 1080р
Контейнер: MP4
Видео кодек: H.264
Аудио кодек: AAC
Видео: Видео: 1920x1080 (16:9), 25.00 fps, AVC, 8101 Кбит, 0.159 bits/pixel
Аудио: Аудио: 48.0 KHz, AAC-LC, 2 ch, 128 Kbps VBR

Отчёт DVDInfo/MediaInfo/BDInfo
Полное имя : G:\DVD\Nils Landgren Funk Unit (2013)\Nils Landgren Funk Unit - au Alfa Jazz Fest.mp4
Формат : MPEG-4
Профиль формата : Base Media / Version 2
Идентификатор кодека : mp42
Размер файла : 3,59 Гбайт
Продолжительность : 59 м.
Общий поток : 8705 Кбит/сек
Дата кодирования : UTC 2013-09-17 06:01:46
Дата пометки : UTC 2013-09-17 06:01:46

Видео
Идентификатор : 2
Формат : AVC
Формат/Информация : Advanced Video Codec
Профиль формата : Main@L4.0
Параметр CABAC формата : Да
Параметр ReFrames формата : 2 кадра
Идентификатор кодека : avc1
Идентификатор кодека/Информация : Advanced Video Coding
Продолжительность : 59 м.
Вид битрейта : Переменный
Битрейт : 8317 Кбит/сек
Максимальный битрейт : 8101 Кбит/сек
Ширина : 1920 пикселей
Высота : 1088 пикселей
Высота оригинала : 1080 пикселей
Соотношение сторон : 16:9
Соотношение сторон в оригинале : 16:9
Режим частоты кадров : Постоянный
Частота кадров : 25,000 кадров/сек
Частота кадров в оригинале : 12,500 кадров/сек
Цветовое пространство : YUV
Субдискретизация насыщенности : 4:2:0
Битовая глубина : 8 бит
Тип развёртки : Прогрессивная
Бит/(Пиксели*Кадры) : 0.159
Размер потока : 3,43 Гбайт (96%)
Язык : English
Дата кодирования : UTC 2013-09-17 06:01:46
Дата пометки : UTC 2013-09-17 06:01:46

Аудио
Идентификатор : 1
Формат : AAC
Формат/Информация : Advanced Audio Codec
Профиль формата : LC
Идентификатор кодека : 40
Продолжительность : 59 м.
Вид битрейта : Постоянный
Битрейт : 384 Кбит/сек
Номинальный битрейт : 128 Кбит/сек
Каналы : 2 канала
Расположение каналов : Front: L R
Частота : 48,0 КГц
Метод сжатия : С потерями
Размер потока : 162 Мбайт (4%)
Язык : English
Дата кодирования : UTC 2013-09-17 06:01:46
Дата пометки : UTC 2013-09-17 06:01:46
Скриншоты видео
2013 Nils Landgren Funk Unit - At Alfa Jazz Festival [HDTV 1080p] 02013 Nils Landgren Funk Unit - At Alfa Jazz Festival [HDTV 1080p] 12013 Nils Landgren Funk Unit - At Alfa Jazz Festival [HDTV 1080p] 22013 Nils Landgren Funk Unit - At Alfa Jazz Festival [HDTV 1080p] 32013 Nils Landgren Funk Unit - At Alfa Jazz Festival [HDTV 1080p] 42013 Nils Landgren Funk Unit - At Alfa Jazz Festival [HDTV 1080p] 52013 Nils Landgren Funk Unit - At Alfa Jazz Festival [HDTV 1080p] 62013 Nils Landgren Funk Unit - At Alfa Jazz Festival [HDTV 1080p] 72013 Nils Landgren Funk Unit - At Alfa Jazz Festival [HDTV 1080p] 82013 Nils Landgren Funk Unit - At Alfa Jazz Festival [HDTV 1080p] 92013 Nils Landgren Funk Unit - At Alfa Jazz Festival [HDTV 1080p] 102013 Nils Landgren Funk Unit - At Alfa Jazz Festival [HDTV 1080p] 11
По всем вопросам пишите личное сообщение пользователю M0p94ok.
455
Нет комментариев. Ваш будет первым!