Вы используете незарегистрированную версию компонента "Вкладки"!

Поиск

2011 Jeff Ballard Trio - Jazz à la Villette [HDTV 1080p]

2011 Jeff Ballard Trio - Jazz à la Villette [HDTV 1080p]
Дата проведения концерта (записи):
4 сентября 2011
Место проведения:
la Cite de la Musique, Paris
Время звучания:
00:50:12
Состав:
  • JEFF BALLARD - drums
  • LIONEL LOUEKE - guitar
  • MIGUEL ZENÓN - alto sax
Описание:

Качество: HDTVRip 1080p
Контейнер: MP4
Видео кодек: H.264
Аудио кодек: AAC
Видео: Видео: 1920x1080 (16:9), 25.00 fps, AVC, 8349 Кбит, 0.161 bits/pixel
Аудио: Аудио: 48.0 KHz, AAC-LC, 2 ch, 165 Kbps VBR

Отчёт DVDInfo/MediaInfo/BDInfo
Общее
Полное имя : G:\DVD\The Jeff Ballard Trio-2011\The Jeff Ballard Trio (2011).mp4
Формат : MPEG-4
Профиль формата : Base Media
Идентификатор кодека : isom
Размер файла : 2,99 Гбайт
Продолжительность : 50 м.
Общий поток : 8519 Кбит/сек
Дата кодирования : UTC 2013-09-12 22:14:30
Дата пометки : UTC 2013-09-12 22:14:30
Программа кодирования : Lavf51.12.1

Видео
Идентификатор : 1
Формат : AVC
Формат/Информация : Advanced Video Codec
Профиль формата : Baseline@L4.0
Параметр CABAC формата : Нет
Параметр ReFrames формата : 1 кадр
Параметр GOP формата : M=1, N=12
Идентификатор кодека : avc1
Идентификатор кодека/Информация : Advanced Video Coding
Продолжительность : 50 м.
Вид битрейта : Переменный
Битрейт : 8349 Кбит/сек
Максимальный битрейт : 12,0 Мбит/сек
Ширина : 1920 пикселей
Высота : 1080 пикселей
Соотношение сторон : 16:9
Режим частоты кадров : Постоянный
Частота кадров : 25,000 кадров/сек
Частота кадров в оригинале : 24,000 кадра/сек
Цветовое пространство : YUV
Субдискретизация насыщенности : 4:2:0
Битовая глубина : 8 бит
Тип развёртки : Прогрессивная
Бит/(Пиксели*Кадры) : 0.161
Размер потока : 2,93 Гбайт (98%)
Язык : English
Дата кодирования : UTC 2013-09-12 22:14:30
Дата пометки : UTC 2013-09-12 22:14:30

Аудио
Идентификатор : 2
Формат : AAC
Формат/Информация : Advanced Audio Codec
Профиль формата : LC
Идентификатор кодека : 40
Продолжительность : 50 м.
Вид битрейта : Переменный
Битрейт : 165 Кбит/сек
Каналы : 2 канала
Расположение каналов : Front: L R
Частота : 48,0 КГц
Метод сжатия : С потерями
Размер потока : 59,4 Мбайт (2%)
Язык : English
Дата кодирования : UTC 2013-09-12 22:14:30
Дата пометки : UTC 2013-09-12 22:14:30
Any questions - support@pro-jazz.com. Есть вопросы - support@pro-jazz.com
256
Нет комментариев. Ваш будет первым!