Вы используете незарегистрированную версию компонента "Вкладки"!

Поиск

2017 Becca Stevens with Snarky Puppy - Live In Paris [HDTV 1080i]

2017 Becca Stevens with Snarky Puppy - Live In Paris [HDTV 1080i]
Дата проведения концерта (записи):
18 мая 2017
Место проведения:
L'Olympia Bruno Coquatrix
Время звучания:
00:34:05
Главы (разбивка по трекам):
нет
Состав:
  • Mike Maher, trumpet, fluegel horn
  • Justin Stanton, trumpet, keyboards
  • Chris Bullock, flute, tenor sax
  • Bobby Sparks, synthesizer , Hammond B3 organ, clavinet
  • Bob Lanzetti, electric guitar
  • Zack Brock, violin
  • Michael League, acoustic double bass
  • Jarnell Lewis, drums
  • Nate Werth, percussion
  • Becca Stevens vocal, guitar 
  • Liam Robinson, keyboards, vocal
  • Jordan Perlson, drums, percussion
Видео:
AVC,1920*1080i (16:9), 5199kbps, 25fps
Аудио#1:
MPEG2, 256kbps, 48kHz, 2ch
Отчёт DVDInfo/MediaInfo/BDInfo
Общее
Полное имя : \\NASF8F4EB\Videos\HD Video\B\Becca Stevens\2017 Becca Stevens - Live In Paris [HDTV 1080i]\2017 Becca Stevens - Live In Paris [HDTV 1080i].mp4
Формат : MPEG-4
Профиль формата : Base Media
Идентификатор кодека : isom (isom/iso2/avc1/mp41)
Размер файла : 1,30 Гбайт
Продолжительность : 34 м. 5 с.
Общий поток : 5460 Кбит/сек
Программа кодирования : Lavf54.63.104

Видео
Идентификатор : 1
Формат : AVC
Формат/Информация : Advanced Video Codec
Профиль формата : High@L4
Настройки формата : CABAC / 4 Ref Frames
Параметр CABAC формата : Да
Параметр RefFrames формата : 4 кадра
Параметр GOP формата : M=4, N=28
Идентификатор кодека : avc1
Идентификатор кодека/Информация : Advanced Video Coding
Продолжительность : 34 м. 5 с.
Битрейт : 5199 Кбит/сек
Ширина : 1920 пикселей
Высота : 1080 пикселей
Соотношение сторон : 16:9
Режим частоты кадров : Постоянный
Частота кадров : 25,000 кадров/сек
Стандарт вещания : Component
Цветовое пространство : YUV
Субдискретизация насыщенности : 4:2:0
Битовая глубина : 8 бит
Тип развёртки : Чересстрочная
Метод сохранения типа развёртки : Раздельные поля
Порядок развёртки : Верхнее поле первое
Бит/(Пиксели*Кадры) : 0.100
Размер потока : 1,24 Гбайт (95%)
Цветовой диапазон : Limited
Основные цвета : BT.709
Характеристики трансфера : BT.709
Коэффициенты матрицы : BT.709
Codec configuration box : avcC

Аудио
Идентификатор : 2
Формат : MPEG Audio
Версия формата : Version 1
Профиль формата : Layer 2
Идентификатор кодека : mp4a-6B
Продолжительность : 34 м. 5 с.
Duration_LastFrame : -24 мс.
Вид битрейта : Постоянный
Битрейт : 256 Кбит/сек
Каналы : 2 канала
Частота : 48,0 КГц
Метод сжатия : С потерями
Размер потока : 62,4 Мбайт (5%)
Язык : Russian
Default : Да
AlternateGroup/String : 1
Any questions - support@pro-jazz.com. Есть вопросы - support@pro-jazz.com
267
Нет комментариев. Ваш будет первым!