Поиск

2013 Caro Emerald - Fashion & Music [HDTV 720p]

2013 Caro Emerald - Fashion & Music [HDTV 720p]
Состав:
  • CARO EMERALD - vocals

Fashion & Music 2013, July 27, Metzingen (Bühne) Germany

Треклист:

1. One Day
2. Pack Up The Louis
3. Back It Up
4. I Belong To You
5. Tangled Up
6. Liquid Lunch
7. The Maestro
8. That Man
9. My Two cents
10. A Night Like This

Описание:

Продолжительность: 00:45:53
Год выпуска: 2013

Качество: HDTV 720p
Контейнер: TS
Видео кодек: H.264
Аудио кодек: AC3
Видео: 12.3 Mbps, 1280*720 (16:9), at 50.000 fps, AVC (High@L3.2) (CABAC / 4 Ref Frames)
Аудио: German, 448 Kbps, 48.0 KHz, 16 bits, 2 channels, AC-3
Источник: Digital Satellite > SkyStar HD2 (TechniSat) > ts > raw data to HDD > Cypheros TS-Doctor > VideoReDo TVSuite v4 (cut) > ts

Отчёт DVDInfo/MediaInfo/BDInfo
General
ID : 1 (0x1)
Complete name : K:\rutracker.org_HD\SWR HD_Caro Emerald - Fashion & Music 2013.ts
Format : MPEG-TS
File size : 4.30 GiB
Duration : 45mn 53s
Overall bit rate : 13.4 Mbps

Video
ID : 5121 (0x1401)
Menu ID : 1 (0x1)
Format : AVC
Format/Info : Advanced Video Codec
Format profile : High@L3.2
Format settings, CABAC : Yes
Format settings, ReFrames : 4 frames
Codec ID : 27
Duration : 45mn 53s
Bit rate : 12.3 Mbps
Width : 1 280 pixels
Height : 720 pixels
Display aspect ratio : 16:9
Frame rate : 50.000 fps
Color space : YUV
Chroma subsampling : 4:2:0
Bit depth : 8 bits
Scan type : Progressive
Bits/(Pixel*Frame) : 0.267
Stream size : 3.94 GiB (92%)

Audio
ID : 5126 (0x1406)
Menu ID : 1 (0x1)
Format : AC-3
Format/Info : Audio Coding 3
Mode extension : CM (complete main)
Codec ID : 6
Duration : 45mn 53s
Bit rate mode : Constant
Bit rate : 448 Kbps
Channel(s) : 2 channels
Channel positions : Front: L R
Sampling rate : 48.0 KHz
Bit depth : 16 bits
Compression mode : Lossy
Stream size : 147 MiB (3%)
Language : German
Скриншоты видео
2013 Caro Emerald - Fashion & Music [HDTV 720p] 02013 Caro Emerald - Fashion & Music [HDTV 720p] 12013 Caro Emerald - Fashion & Music [HDTV 720p] 22013 Caro Emerald - Fashion & Music [HDTV 720p] 32013 Caro Emerald - Fashion & Music [HDTV 720p] 42013 Caro Emerald - Fashion & Music [HDTV 720p] 52013 Caro Emerald - Fashion & Music [HDTV 720p] 6
Download available for power users only.
715
Нет комментариев. Ваш будет первым!