Поиск

2015 Sun Ra - On Stage With Ra At Banlieues Bleues [HDTV 1080i]

2015 Sun Ra - On Stage With Ra At Banlieues Bleues [HDTV 1080i]
Дата проведения концерта (записи):
20 марта 2015
Место проведения:
l'Espace 1789 - Saint-Ouen
Главы (разбивка по трекам):
нет
Состав:
  • Marshall Allen  Saxophone Alto, Directeur
  • Knoel Scott  Saxophones - Voix
  • Charles Davis  Saxophone Ténor
  • Danny Ray Thompson  Saxophone Baryton
  • Cecil Brooks  Trompette
  • Dave Davis  Trombone
  • Elson Nascimiento  Percussions - Surdo
  • Bobby Few  Piano
  • Tyler Mitchell  Contrebasse
  • Wayne A. Smith  Batterie
Видео:
AVC,1920*1080i (16:9), 5837kbps, 25fps
Аудио#1:
MPEG2, 256kbps, 48kHz, 2ch
Отчёт DVDInfo/MediaInfo/BDInfo
Общее
Полное имя : \\NASF8F4EB\Videos\HD Video\S\Sun Ra\2015 Sun Ra - On Stage With Ra At Banlieues Bleues [HDTV 1080i]\2015 Sun Ra - On Stage With Ra At Banlieues Bleues [HDTV 1080i].mp4
Формат : MPEG-4
Профиль формата : Base Media
Идентификатор кодека : isom (isom/iso2/avc1/mp41)
Размер файла : 2,49 Гбайт
Продолжительность : 58 м. 29 с.
Общий поток : 6099 Кбит/сек
Программа кодирования : Lavf54.63.104

Видео
Идентификатор : 1
Формат : AVC
Формат/Информация : Advanced Video Codec
Профиль формата : High@L4
Настройки формата : CABAC / 4 Ref Frames
Параметр CABAC формата : Да
Параметр RefFrames формата : 4 кадра
Параметр GOP формата : M=4, N=28
Идентификатор кодека : avc1
Идентификатор кодека/Информация : Advanced Video Coding
Продолжительность : 58 м. 29 с.
Битрейт : 5837 Кбит/сек
Ширина : 1920 пикселей
Высота : 1080 пикселей
Соотношение сторон : 16:9
Режим частоты кадров : Постоянный
Частота кадров : 25,000 кадров/сек
Стандарт вещания : Component
Цветовое пространство : YUV
Субдискретизация насыщенности : 4:2:0
Битовая глубина : 8 бит
Тип развёртки : Чересстрочная
Метод сохранения типа развёртки : Раздельные поля
Порядок развёртки : Верхнее поле первое
Бит/(Пиксели*Кадры) : 0.113
Размер потока : 2,38 Гбайт (96%)
Цветовой диапазон : Limited
Основные цвета : BT.709
Характеристики трансфера : BT.709
Коэффициенты матрицы : BT.709
Codec configuration box : avcC

Аудио
Идентификатор : 2
Формат : MPEG Audio
Версия формата : Version 1
Профиль формата : Layer 2
Идентификатор кодека : mp4a-6B
Продолжительность : 58 м. 29 с.
Duration_LastFrame : -24 мс.
Вид битрейта : Постоянный
Битрейт : 256 Кбит/сек
Каналы : 2 канала
Частота : 48,0 КГц
Метод сжатия : С потерями
Размер потока : 107 Мбайт (4%)
Язык : Russian
Default : Да
AlternateGroup/String : 1
Скриншоты видео
2015 Sun Ra - On Stage With Ra At Banlieues Bleues [HDTV 1080i] 02015 Sun Ra - On Stage With Ra At Banlieues Bleues [HDTV 1080i] 12015 Sun Ra - On Stage With Ra At Banlieues Bleues [HDTV 1080i] 22015 Sun Ra - On Stage With Ra At Banlieues Bleues [HDTV 1080i] 32015 Sun Ra - On Stage With Ra At Banlieues Bleues [HDTV 1080i] 42015 Sun Ra - On Stage With Ra At Banlieues Bleues [HDTV 1080i] 5
Download available for power users only.
681
Нет комментариев. Ваш будет первым!