Вы используете незарегистрированную версию компонента "Вкладки"!

Поиск

2013 Hugh Masekela - At Paris Jazz Fest [HDTV 1080i]

2013 Hugh Masekela - At Paris Jazz Fest [HDTV 1080i]
Дата проведения концерта (записи):
21 июля 2013
Место проведения:
Parc Floral de Paris
Время звучания:
00:54:34
Главы (разбивка по трекам):
нет
Состав:
  • Hugh Masekela    bugle, voix
  • Cameron Ward    guitare
  • Fana Zulu    basse
  • Randal Skippers    claviers
  • Lee-Roy Sauls    batterie
  • Francis Manneh Fusler    percussions
Видео:
AVC,1920*1080i (16:9), 5510kbps, 25fps
Аудио#1:
MPEG2, 256kbps, 48kHz, 2ch
Отчёт DVDInfo/MediaInfo/BDInfo
Общее
Полное имя : C:\Users\julpu\Videos\2013 Hugh Masekela - At Paris Jazz Fest [HDTV 1080i]\2013 Hugh Masekela - At Paris Jazz Fest [HDTV 1080i].mp4
Формат : MPEG-4
Профиль формата : Base Media
Идентификатор кодека : isom (isom/iso2/avc1/mp41)
Размер файла : 2,23 Гбайт
Продолжительность : 54 м. 34 с.
Общий поток : 5849 Кбит/сек
Программа кодирования : Lavf54.63.104

Видео
Идентификатор : 1
Формат : AVC
Формат/Информация : Advanced Video Codec
Профиль формата : High@L4
Настройки формата : CABAC / 4 Ref Frames
Параметр CABAC формата : Да
Параметр RefFrames формата : 4 кадра
Идентификатор кодека : avc1
Идентификатор кодека/Информация : Advanced Video Coding
Продолжительность : 54 м. 34 с.
Битрейт : 5587 Кбит/сек
Ширина : 1920 пикселей
Высота : 1080 пикселей
Соотношение сторон : 16:9
Режим частоты кадров : Постоянный
Частота кадров : 25,000 кадров/сек
Стандарт вещания : Component
Цветовое пространство : YUV
Субдискретизация насыщенности : 4:2:0
Битовая глубина : 8 бит
Тип развёртки : Чересстрочная
Метод сохранения типа развёртки : Раздельные поля
Порядок развёртки : Верхнее поле первое
Бит/(Пиксели*Кадры) : 0.108
Размер потока : 2,13 Гбайт (96%)
Цветовой диапазон : Limited
Основные цвета : BT.709
Характеристики трансфера : BT.709
Коэффициенты матрицы : BT.709
Codec configuration box : avcC

Аудио
Идентификатор : 2
Формат : MPEG Audio
Версия формата : Version 1
Профиль формата : Layer 2
Идентификатор кодека : mp4a-6B
Продолжительность : 54 м. 34 с.
Duration_LastFrame : -24 мс.
Вид битрейта : Постоянный
Битрейт : 256 Кбит/сек
Каналы : 2 канала
Частота : 48,0 КГц
Метод сжатия : С потерями
Размер потока : 99,9 Мбайт (4%)
Язык : Russian
Default : Да
AlternateGroup/String : 1
Any questions - support@pro-jazz.com. Есть вопросы - support@pro-jazz.com
381
Нет комментариев. Ваш будет первым!