Вы используете незарегистрированную версию компонента "Вкладки"!

Поиск

2008 Mike Stern Band - New Morning - The Paris Concert [BDRip 720p]

2008 Mike Stern Band - New Morning - The Paris Concert [BDRip 720p]
Состав:
Описание:

Жанр: Jazz-Fusion
Продолжительность: 1:41:46
Год выпуска: 2008
Исходник: BD

Качество: BDRip 720p
Контейнер: MKV
Видео кодек: H.264
Аудио кодек: AC3
Видео: AVC, 1280:720, 6151 kbps, 29.970 fps
Аудио: AC3, 448 kbps, 48 kHz, 2 ch

Отчёт DVDInfo/MediaInfo/BDInfo
Общее
Уникальный идентификатор : 176294915420272265145921672049381029988 (0x84A12A69075D04439A9D329432073864)
Полное имя : H:\CAPTURE\Mike Stern Band - New Morning - The Paris Concert (2008)[BDrip 720p].mkv
Формат : Matroska
Версия формата : Version 4 / Version 2
Размер файла : 4,69 Гбайт
Продолжительность : 1 ч. 41 м.
Режим общего битрейта : Переменный
Общий поток : 6599 Кбит/сек
Дата кодирования : UTC 2013-09-09 22:07:05
Программа кодирования : mkvmerge v6.3.0 ('You can't stop me!') built on Jun 28 2013 20:09:41
Библиотека кодирования : libebml v1.3.0 + libmatroska v1.4.0

Видео
Идентификатор : 1
Формат : AVC
Формат/Информация : Advanced Video Codec
Профиль формата : High@L4.1
Параметр CABAC формата : Да
Параметр ReFrames формата : 4 кадра
Режим кадров : Frame doubling
Идентификатор кодека : V_MPEG4/ISO/AVC
Продолжительность : 1 ч. 41 м.
Вид битрейта : Переменный
Битрейт : 6151 Кбит/сек
Максимальный битрейт : 40,0 Мбит/сек
Ширина : 1280 пикселей
Высота : 720 пикселей
Соотношение сторон : 16:9
Режим частоты кадров : Постоянный
Частота кадров : 29,970 кадров/сек
Цветовое пространство : YUV
Субдискретизация насыщенности : 4:2:0
Битовая глубина : 8 бит
Тип развёртки : Прогрессивная
Бит/(Пиксели*Кадры) : 0.223
Размер потока : 4,28 Гбайт (91%)
Библиотека кодирования : x264 core 133 r2334 a3ac64b
Настройки программы : cabac=1 / ref=5 / deblock=1:0:0 / analyse=0x3:0x113 / me=umh / subme=8 / psy=1 / psy_rd=1.00:0.00 / mixed_ref=1 / me_range=16 / chroma_me=1 / trellis=1 / 8x8dct=1 / cqm=0 / deadzone=21,11 / fast_pskip=1 / chroma_qp_offset=-2 / threads=3 / lookahead_threads=1 / sliced_threads=0 / slices=4 / nr=0 / decimate=1 / interlaced=0 / bluray_compat=1 / constrained_intra=0 / bframes=3 / b_pyramid=1 / b_adapt=2 / b_bias=0 / direct=3 / weightb=1 / open_gop=1 / weightp=1 / keyint=30 / keyint_min=1 / scenecut=40 / intra_refresh=0 / rc_lookahead=30 / rc=2pass / mbtree=1 / bitrate=6151 / ratetol=1.0 / qcomp=0.60 / qpmin=10 / qpmax=51 / qpstep=4 / cplxblur=20.0 / qblur=0.5 / vbv_maxrate=40000 / vbv_bufsize=30000 / nal_hrd=vbr / ip_ratio=1.40 / aq=1:1.00
Язык : English
Default : Да
Forced : Нет
Основные цвета : BT.709
Характеристики трансфера : BT.709
Коэффициенты матрицы : BT.709

Аудио
Идентификатор : 2
Формат : AC-3
Формат/Информация : Audio Coding 3
Расширение режима : CM (complete main)
Параметр Endianness формата : Big
Идентификатор кодека : A_AC3
Продолжительность : 1 ч. 41 м.
Вид битрейта : Постоянный
Битрейт : 448 Кбит/сек
Каналы : 2 канала
Расположение каналов : Front: L R
Частота : 48,0 КГц
Битовая глубина : 16 бит
Метод сжатия : С потерями
Размер потока : 326 Мбайт (7%)
Заголовок : AC3 2ch
Язык : English
Default : Да
Forced : Нет

Меню
00:00:00.000 : 00:00:00.000
00:21:53.846 : 00:21:53.846
00:33:15.627 : 00:33:15.627
00:45:02.233 : 00:45:02.233
01:01:07.864 : 01:01:07.864
01:16:05.428 : 01:16:05.428
01:24:12.581 : 01:24:12.581
01:32:43.091 : 01:32:43.091
Any questions - support@pro-jazz.com. Есть вопросы - support@pro-jazz.com
311
Нет комментариев. Ваш будет первым!