Вы используете незарегистрированную версию компонента "Вкладки"!

Поиск

2015 Strata-East All Stars feat. Charles Tolliver - Freedom Now! Live At Banlieues Bleues [HDTV 1080i]

2015 Strata-East All Stars feat. Charles Tolliver - Freedom Now! Live At Banlieues Bleues [HDTV 1080i]
Дата проведения концерта (записи):
20 марта 2015
Место проведения:
l’Espace 1789, Saint-Ouen
Время звучания:
00:52:53
Главы (разбивка по трекам):
нет
Состав:
  • CHARLES TOLLIVER trompette
  • STANLEY COWELL piano
  • CECIL MCBEE basse
  • ALVIN QUEEN batterie
  • JEAN CARN voix
Видео:
AVC,1920*1080i (16:9), 5428kbps, 25fps
Аудио#1:
AAC LC, 256kbps, 48kHz, 2ch
Отчёт DVDInfo/MediaInfo/BDInfo
Общее
Полное имя : \\NASF8F4EB\Videos\HD Video\S\Strata-East All Stars\2015 Strata-East All Stars - Live At Banlieues Bleues [HDTV 1080i]\2015 Strata-East All Stars - Live At Banlieues Bleues [HDTV 1080i].mp4
Формат : MPEG-4
Профиль формата : Base Media
Идентификатор кодека : isom (isom/iso2/avc1/mp41)
Размер файла : 2,10 Гбайт
Продолжительность : 52 м. 53 с.
Режим общего битрейта : Переменный
Общий поток : 5688 Кбит/сек
Программа кодирования : Lavf54.63.104

Видео
Идентификатор : 1
Формат : AVC
Формат/Информация : Advanced Video Codec
Профиль формата : High@L4
Настройки формата : CABAC / 4 Ref Frames
Параметр CABAC формата : Да
Параметр RefFrames формата : 4 кадра
Параметр GOP формата : M=4, N=28
Идентификатор кодека : avc1
Идентификатор кодека/Информация : Advanced Video Coding
Продолжительность : 52 м. 53 с.
Битрейт : 5428 Кбит/сек
Ширина : 1920 пикселей
Высота : 1080 пикселей
Соотношение сторон : 16:9
Режим частоты кадров : Постоянный
Частота кадров : 25,000 кадров/сек
Стандарт вещания : Component
Цветовое пространство : YUV
Субдискретизация насыщенности : 4:2:0
Битовая глубина : 8 бит
Тип развёртки : Чересстрочная
Метод сохранения типа развёртки : Раздельные поля
Порядок развёртки : Верхнее поле первое
Бит/(Пиксели*Кадры) : 0.105
Размер потока : 2,01 Гбайт (95%)
Цветовой диапазон : Limited
Основные цвета : BT.709
Характеристики трансфера : BT.709
Коэффициенты матрицы : BT.709
Codec configuration box : avcC

Аудио
Идентификатор : 2
Формат : AAC LC
Формат/Информация : Advanced Audio Codec Low Complexity
Идентификатор кодека : mp4a-40-2
Продолжительность : 52 м. 53 с.
Duration_LastFrame : -21 мс.
Вид битрейта : Переменный
Битрейт : 253 Кбит/сек
Максимальный битрейт : 256 Кбит/сек
Каналы : 2 канала
ChannelLayout : L R
Частота : 48,0 КГц
Частота кадров : 46,875 кадров/сек (1024 SPF)
Метод сжатия : С потерями
Размер потока : 95,9 Мбайт (4%)
Язык : Russian
Default : Да
AlternateGroup/String : 1
Any questions - support@pro-jazz.com. Есть вопросы - support@pro-jazz.com
327
Нет комментариев. Ваш будет первым!