Вы используете незарегистрированную версию компонента "Вкладки"!

Поиск

2003 Kenny Barron - Canta Brasil - Jazzfestival Bern [HDTV 720p]

2003 Kenny Barron - Canta Brasil - Jazzfestival Bern [HDTV 720p]
Состав:
  • Kenny Barron - piano
  • Nilson Matta - bass
  • Anne Drummond - flute
  • Romero Lubambo - guitar
  • Duduka Da Fonseca - drums
Описание:

Продолжительность: 01:56:23
Год выпуска: 2003

Качество: HDTV 720p
Контейнер: TS
Видео кодек: H.264
Аудио кодек: AC3
Видео: 11.6 Mbps, 1280*720 (16:9), at 50.000 fps, AVC (High@L4.0) (CABAC / 6 Ref Frames)
Аудио: German, 448 Kbps, 48.0 KHz, 16 bits, 2 channels, AC-3
Источник: Digital Satellite > SkyStar HD2 (TechniSat) > raw data to HDD > Cypheros TS-Doctor > VideoReDo TVSuite v4 (cut) > ts

Отчёт DVDInfo/MediaInfo/BDInfo
General
ID : 1 (0x1)
Complete name : K:\rutracker.org_HD\3sat HD_Kenny Barron ''Canta Brasil'' - Jazzfestival Bern 2003.ts
Format : MPEG-TS
File size : 10.3 GiB
Duration : 1h 56mn
Overall bit rate : 12.7 Mbps

Video
ID : 6510 (0x196E)
Menu ID : 1 (0x1)
Format : AVC
Format/Info : Advanced Video Codec
Format profile : High@L4.0
Format settings, CABAC : Yes
Format settings, ReFrames : 6 frames
Codec ID : 27
Duration : 1h 56mn
Bit rate : 11.6 Mbps
Width : 1 280 pixels
Height : 720 pixels
Display aspect ratio : 16:9
Frame rate : 50.000 fps
Color space : YUV
Chroma subsampling : 4:2:0
Bit depth : 8 bits
Scan type : Progressive
Bits/(Pixel*Frame) : 0.252
Stream size : 9.44 GiB (91%)
Color primaries : BT.709-5, BT.1361, IEC 61966-2-4, SMPTE RP177
Transfer characteristics : BT.709-5, BT.1361
Matrix coefficients : BT.709-5, BT.1361, IEC 61966-2-4 709, SMPTE RP177

Audio
ID : 6522 (0x197A)
Menu ID : 1 (0x1)
Format : AC-3
Format/Info : Audio Coding 3
Mode extension : CM (complete main)
Codec ID : 6
Duration : 1h 56mn
Bit rate mode : Constant
Bit rate : 448 Kbps
Channel(s) : 2 channels
Channel positions : Front: L R
Sampling rate : 48.0 KHz
Bit depth : 16 bits
Compression mode : Lossy
Stream size : 373 MiB (4%)
Language : German
Any questions - support@pro-jazz.com. Есть вопросы - support@pro-jazz.com
313
Нет комментариев. Ваш будет первым!