Поиск

2014 Jack DeJohnette Trio - JazzOnze+ Festival [HDTV 1080i]

2014 Jack DeJohnette Trio - JazzOnze+ Festival [HDTV 1080i]
Время звучания:
00:59:18
Главы (разбивка по трекам):
нет
Состав:
  • Jack DeJohnette - drums, piano
  • Ravi Coltrane - saxophone
  • Matt Garrison - bass guitar
Треклист:

1. Seventh D.
2. Segment
3. Pastel Rhapsodies
4. The Wise One
5. The Sidewinder

Видео:
AVC,1920*1080i (16:9), 5272kbps, 25fps
Аудио#1:
MPEG2, 256kbps, 48kHz, 2ch
Отчёт DVDInfo/MediaInfo/BDInfo
Общее
Полное имя : \\NASF8F4EB\Videos\HD Video\J\Jack DeJohnette\2014 Jack DeJohnette Trio - JazzOnze+ Fest [HDTV 1080i]\2014 Jack DeJohnette Trio - JazzOnze+ Fest [HDTV 1080i].mp4
Формат : MPEG-4
Профиль формата : Base Media
Идентификатор кодека : isom (isom/iso2/avc1/mp41)
Размер файла : 2,29 Гбайт
Продолжительность : 59 м. 17 с.
Общий поток : 5534 Кбит/сек
Программа кодирования : Lavf54.63.104

Видео
Идентификатор : 1
Формат : AVC
Формат/Информация : Advanced Video Codec
Профиль формата : High@L4
Настройки формата : CABAC / 4 Ref Frames
Параметр CABAC формата : Да
Параметр RefFrames формата : 4 кадра
Параметр GOP формата : M=4, N=28
Идентификатор кодека : avc1
Идентификатор кодека/Информация : Advanced Video Coding
Продолжительность : 59 м. 17 с.
Битрейт : 5272 Кбит/сек
Ширина : 1920 пикселей
Высота : 1080 пикселей
Соотношение сторон : 16:9
Режим частоты кадров : Постоянный
Частота кадров : 25,000 кадров/сек
Стандарт вещания : Component
Цветовое пространство : YUV
Субдискретизация насыщенности : 4:2:0
Битовая глубина : 8 бит
Тип развёртки : Чересстрочная
Метод сохранения типа развёртки : Раздельные поля
Порядок развёртки : Верхнее поле первое
Бит/(Пиксели*Кадры) : 0.102
Размер потока : 2,18 Гбайт (95%)
Цветовой диапазон : Limited
Основные цвета : BT.709
Характеристики трансфера : BT.709
Коэффициенты матрицы : BT.709
Codec configuration box : avcC

Аудио
Идентификатор : 2
Формат : MPEG Audio
Версия формата : Version 1
Профиль формата : Layer 2
Идентификатор кодека : mp4a-6B
Продолжительность : 59 м. 17 с.
Duration_LastFrame : -24 мс.
Вид битрейта : Постоянный
Битрейт : 256 Кбит/сек
Каналы : 2 канала
Частота : 48,0 КГц
Метод сжатия : С потерями
Размер потока : 109 Мбайт (5%)
Язык : Russian
Default : Да
AlternateGroup/String : 1
Скриншоты видео
2014 Jack DeJohnette Trio - JazzOnze+ Festival [HDTV 1080i] 02014 Jack DeJohnette Trio - JazzOnze+ Festival [HDTV 1080i] 12014 Jack DeJohnette Trio - JazzOnze+ Festival [HDTV 1080i] 22014 Jack DeJohnette Trio - JazzOnze+ Festival [HDTV 1080i] 32014 Jack DeJohnette Trio - JazzOnze+ Festival [HDTV 1080i] 42014 Jack DeJohnette Trio - JazzOnze+ Festival [HDTV 1080i] 5
Download available for power users only.
557
Нет комментариев. Ваш будет первым!