Вы используете незарегистрированную версию компонента "Вкладки"!

Поиск

2014 Tom Harrell - Colors Of Dream - Jazz A Vienne [HDTV 1080i]

2014 Tom Harrell - Colors Of Dream - Jazz A Vienne [HDTV 1080i]
Дата проведения концерта (записи):
12 июля 2014
Время звучания:
00:52:19
Главы (разбивка по трекам):
нет
Состав:
  • Esperanza Spalding (b-voc)
  • Jonathan Blake (dms)
  • Jaleel Shaw (s)
  • Wayne Escoffery (s)
  • Ugonna Okegwo (b)
Видео:
AVC,1920*1080i (16:9), 5073kbps, 25fps
Аудио#1:
MPEG2, 256kbps, 48kHz, 2ch
Отчёт DVDInfo/MediaInfo/BDInfo
Общее
Полное имя : \\NASF8F4EB\Videos\HD Video\T\Tom Harrell\2014 Tom Harrell - Colors Of Dream - Jazz A Vienne [HDTV 1080i]\2014 Tom Harrell - Colors Of Dream - Jazz A Vienne [HDTV 1080i].mp4
Формат : MPEG-4
Профиль формата : Base Media
Идентификатор кодека : isom (isom/iso2/avc1/mp41)
Размер файла : 1,95 Гбайт
Продолжительность : 52 м. 19 с.
Общий поток : 5335 Кбит/сек
Программа кодирования : Lavf54.63.104

Видео
Идентификатор : 1
Формат : AVC
Формат/Информация : Advanced Video Codec
Профиль формата : High@L4
Настройки формата : CABAC / 4 Ref Frames
Параметр CABAC формата : Да
Параметр RefFrames формата : 4 кадра
Идентификатор кодека : avc1
Идентификатор кодека/Информация : Advanced Video Coding
Продолжительность : 52 м. 19 с.
Битрейт : 5073 Кбит/сек
Ширина : 1920 пикселей
Высота : 1080 пикселей
Соотношение сторон : 16:9
Режим частоты кадров : Постоянный
Частота кадров : 25,000 кадров/сек
Стандарт вещания : Component
Цветовое пространство : YUV
Субдискретизация насыщенности : 4:2:0
Битовая глубина : 8 бит
Тип развёртки : Чересстрочная
Метод сохранения типа развёртки : Раздельные поля
Порядок развёртки : Верхнее поле первое
Бит/(Пиксели*Кадры) : 0.098
Размер потока : 1,85 Гбайт (95%)
Цветовой диапазон : Limited
Основные цвета : BT.709
Характеристики трансфера : BT.709
Коэффициенты матрицы : BT.709
Codec configuration box : avcC

Аудио
Идентификатор : 2
Формат : MPEG Audio
Версия формата : Version 1
Профиль формата : Layer 2
Идентификатор кодека : mp4a-6B
Продолжительность : 52 м. 19 с.
Duration_LastFrame : -24 мс.
Вид битрейта : Постоянный
Битрейт : 256 Кбит/сек
Каналы : 2 канала
Частота : 48,0 КГц
Метод сжатия : С потерями
Размер потока : 95,8 Мбайт (5%)
Язык : Russian
Default : Да
AlternateGroup/String : 1
Any questions - support@pro-jazz.com. Есть вопросы - support@pro-jazz.com
305
Нет комментариев. Ваш будет первым!