Вы используете незарегистрированную версию компонента "Вкладки"!

Поиск

2012 Tower Of Power - Leverkusener Jazztage [HDTV 720p]

2012 Tower Of Power - Leverkusener Jazztage [HDTV 720p]
Дата проведения концерта (записи):
10 ноября 2012
Место проведения:
33. Leverkusener Jazztage - Forum, Leverkusen, Germany
Описание:

Продолжительность: 1:38:38
Год выпуска: 2012

Качество: HDTV 720p
Контейнер: MKV
Видео кодек: H.264
Аудио кодек: AC3
Видео: AVC, 1280:720, 8594 kbps, 50 fps
Аудио: AC3, 448 kbps, 48 kHz, 2 ch
Аудио 2: MP2, 192 kbps, 48 kHz, 2 ch

Отчёт DVDInfo/MediaInfo/BDInfo
Общее
Уникальный идентификатор : 183767700014265886592129664903072727550 (0x8A405F22F02D7D18A604BD0BC57C41FE)
Полное имя : H:\CAPTURE\Tower Of Power - Leverkusener Jazztage (2012)[HDTV 720p].mkv
Формат : Matroska
Версия формата : Version 4 / Version 2
Размер файла : 6,49 Гбайт
Продолжительность : 1 ч. 38 м.
Общий поток : 9422 Кбит/сек
Дата кодирования : UTC 2013-03-24 17:33:25
Программа кодирования : mkvmerge v6.1.0 ('Old Devil') built on Mar 2 2013 14:32:37
Библиотека кодирования : libebml v1.3.0 + libmatroska v1.4.0

Видео
Идентификатор : 1
Формат : AVC
Формат/Информация : Advanced Video Codec
Профиль формата : High@L3.2
Параметр CABAC формата : Да
Параметр ReFrames формата : 4 кадра
Идентификатор кодека : V_MPEG4/ISO/AVC
Продолжительность : 1 ч. 38 м.
Битрейт : 8594 Кбит/сек
Ширина : 1280 пикселей
Высота : 720 пикселей
Соотношение сторон : 16:9
Режим частоты кадров : Постоянный
Частота кадров : 50,000 кадров/сек
Цветовое пространство : YUV
Субдискретизация насыщенности : 4:2:0
Битовая глубина : 8 бит
Тип развёртки : Прогрессивная
Бит/(Пиксели*Кадры) : 0.187
Размер потока : 5,92 Гбайт (91%)
Default : Да
Forced : Нет

Аудио #1
Идентификатор : 2
Формат : AC-3
Формат/Информация : Audio Coding 3
Расширение режима : CM (complete main)
Параметр Endianness формата : Big
Идентификатор кодека : A_AC3
Продолжительность : 1 ч. 38 м.
Вид битрейта : Постоянный
Битрейт : 448 Кбит/сек
Каналы : 2 канала
Расположение каналов : Front: L R
Частота : 48,0 КГц
Битовая глубина : 16 бит
Метод сжатия : С потерями
Размер потока : 316 Мбайт (5%)
Язык : English
Default : Да
Forced : Нет

Аудио #2
Идентификатор : 3
Формат : MPEG Audio
Версия формата : Version 1
Профиль формата : Layer 2
Идентификатор кодека : A_MPEG/L2
Идентификатор кодека/Подсказка : MP2
Продолжительность : 1 ч. 38 м.
Вид битрейта : Постоянный
Битрейт : 192 Кбит/сек
Каналы : 2 канала
Частота : 48,0 КГц
Метод сжатия : С потерями
Размер потока : 135 Мбайт (2%)
Язык : English
Default : Нет
Forced : Нет

Меню
00:00:00.000 : [intro]
00:00:45.300 : I Like Your Style
00:04:22.400 : de:Ain't Nothin' Stoppin' Us Now >
00:06:41.400 : de:You Ought To Be Havin' Fun >
00:09:01.000 : de:Only So Much Oil In The Ground
00:12:30.900 : de:Can't You See (You Doin' Me Wrong)
00:17:22.000 : de:Come Back Baby
00:20:40.200 : de:You Got To Funkifize
00:25:21.400 : de:Maybe It'll Rub Off
00:29:51.800 : de:Just When We Started Making It
00:36:51.400 : de:So I Got To Groove
00:45:11.700 : de:Me & Mrs. Jones
00:51:35.800 : de:[band introduction]
00:54:20.300 : de:Medley: Diggin' On James Brown
01:07:26.300 : de:So Very Hard To Go
01:11:06.000 : de:What Is Hip?
01:22:42.200 : de:You're Still A Young Man
01:28:11.100 : de:Soul With A Capitol "S"
01:34:31.200 : de:Souled Out
Any questions - support@pro-jazz.com. Есть вопросы - support@pro-jazz.com
294
Нет комментариев. Ваш будет первым!