Вы используете незарегистрированную версию компонента "Вкладки"!

Поиск

2010 Pink Martini - Jazz Open Stuttgart [HDTV 720p]

2010 Pink Martini - Jazz Open Stuttgart [HDTV 720p]
Состав:
  • THOMAS LAUDERDALE - piano
  • CHINA FORBES - vocals
  • ROBERT TAYLOR - trombone
  • GAVIN BONDY - trumpet
  • MARTIN ZARZAR - drums, percussion
  • BRIAN DAVIS - drums, percussion
  • DEREK RIETH - percussion
  • PHIL BAKER - bass
  • TIMOTHY NISHIMOTO - vocals, percussion
  • DANIEL FAEHNLE - guitar
  • NICHOLAS CROSA - violin
  • PANCY CHANG - cello
Описание:

Продолжительность: 00:53:27
Год выпуска: 2010Качество: HDTV 720p
Контейнер: TS
Видео кодек: H.264
Аудио кодек: AC3
Видео: 12.1 Mbps, 1280*720 (16:9), at 50.000 fps, AVC (High@L3.2) (CABAC / 4 Ref Frames)
Аудио: German, 448 Kbps, 48.0 KHz, 16 bits, 2 channels, AC-3
Источник: Digital Satellite > SkyStar HD2 (TechniSat) > ts > raw data to HDD > Cypheros TS-Doctor > VideoReDo TVSuite v4 (cut)

Отчёт DVDInfo/MediaInfo/BDInfo
General
ID : 1 (0x1)
Complete name : K:\rutracker.org_HD\SWR HD_Pink Martini - Jazz Open Stuttgart 2010.ts
Format : MPEG-TS
File size : 4.92 GiB
Duration : 53mn 27s
Overall bit rate : 13.2 Mbps

Video
ID : 5121 (0x1401)
Menu ID : 1 (0x1)
Format : AVC
Format/Info : Advanced Video Codec
Format profile : High@L3.2
Format settings, CABAC : Yes
Format settings, ReFrames : 4 frames
Codec ID : 27
Duration : 53mn 27s
Bit rate : 12.1 Mbps
Width : 1 280 pixels
Height : 720 pixels
Display aspect ratio : 16:9
Frame rate : 50.000 fps
Color space : YUV
Chroma subsampling : 4:2:0
Bit depth : 8 bits
Scan type : Progressive
Bits/(Pixel*Frame) : 0.262
Stream size : 4.51 GiB (92%)

Audio
ID : 5126 (0x1406)
Menu ID : 1 (0x1)
Format : AC-3
Format/Info : Audio Coding 3
Mode extension : CM (complete main)
Codec ID : 6
Duration : 53mn 27s
Bit rate mode : Constant
Bit rate : 448 Kbps
Channel(s) : 2 channels
Channel positions : Front: L R
Sampling rate : 48.0 KHz
Bit depth : 16 bits
Compression mode : Lossy
Stream size : 171 MiB (3%)
Language : German
Any questions - support@pro-jazz.com. Есть вопросы - support@pro-jazz.com
352
Нет комментариев. Ваш будет первым!