Вы используете незарегистрированную версию компонента "Вкладки"!

Поиск

2013 Lang Lang, Dee Dee Bridgewater & RSO Stuttgart - Jazz Open Stuttgart [HDTV 720p]

2013 Lang Lang, Dee Dee Bridgewater & RSO Stuttgart - Jazz Open Stuttgart [HDTV 720p]
Состав:
  • Lang Lang - piano
  • Dee Dee Bridgewater - vocals
  • Das Radio-Sinfonieorchester (RSO) Stuttgart des SWR
  • Stéphane Denève - leitung
Описание:

… данный релиз не является одним сплошным концертом ...
… представлен только фрагмент выступления с участием Dee Dee Bridgewater ...

Продолжительность: 00:22:18
Год выпуска: 2013

Качество: HDTV 720p
Контейнер: TS
Видео кодек: H.264
Аудио кодек: AC3
Видео: 10.4 Mbps, 1280*720 (16:9), at 50.000 fps, AVC (High@L3.2) (CABAC / 4 Ref Frames)
Аудио: Multiple languages, 448 Kbps, 48.0 KHz, 16 bits, 6 channels, AC-3
Источник: Digital Satellite > SkyStar HD2 (TechniSat) > raw data to HDD > Cypheros TS-Doctor > VideoReDo TVSuite v4 (cut) > ts

Отчёт DVDInfo/MediaInfo/BDInfo
General
ID : 1 (0x1)
Complete name : K:\rutracker.org_HD\arte HD_Lang Lang, Dee Dee Bridgewater - Jazz Open Stuttgart 2013.ts
Format : MPEG-TS
File size : 1.78 GiB
Duration : 22mn 18s
Overall bit rate : 11.4 Mbps

Video
ID : 5111 (0x13F7)
Menu ID : 1 (0x1)
Format : AVC
Format/Info : Advanced Video Codec
Format profile : High@L3.2
Format settings, CABAC : Yes
Format settings, ReFrames : 4 frames
Codec ID : 27
Duration : 22mn 18s
Bit rate : 10.4 Mbps
Width : 1 280 pixels
Height : 720 pixels
Display aspect ratio : 16:9
Frame rate : 50.000 fps
Color space : YUV
Chroma subsampling : 4:2:0
Bit depth : 8 bits
Scan type : Progressive
Bits/(Pixel*Frame) : 0.226
Stream size : 1.62 GiB (91%)

Audio
ID : 5116 (0x13FC)
Menu ID : 1 (0x1)
Format : AC-3
Format/Info : Audio Coding 3
Mode extension : CM (complete main)
Codec ID : 6
Duration : 22mn 18s
Bit rate mode : Constant
Bit rate : 448 Kbps
Channel(s) : 6 channels
Channel positions : Front: L C R, Side: L R, LFE
Sampling rate : 48.0 KHz
Bit depth : 16 bits
Compression mode : Lossy
Stream size : 71.5 MiB (4%)
Language : Multiple languages
Any questions - support@pro-jazz.com. Есть вопросы - support@pro-jazz.com
313
Нет комментариев. Ваш будет первым!