Вы используете незарегистрированную версию компонента "Вкладки"!

Поиск

2013 Eddie Palmieri - Estival Jazz Lugano [HDTV 720p]

2013 Eddie Palmieri - Estival Jazz Lugano [HDTV 720p]
Дата проведения концерта (записи):
5 июля 2013
Место проведения:
Piazza della Riforma Lugano, Switzerland
Время звучания:
01:23:05
Состав:
  • Eddie Palmieri: keys, leader
  • Louis Fouché: altsax
  • Jonathan Powell: trumpet
  • Little Johnny Rivero: congas
  • Orlando Vega: bongos
  • Jose Claussell: timbales
  • Luques Curtis: bass
Описание:

Качество: HDTV 720p
Контейнер: MKV
Видео кодек: H.264
Аудио кодек: AC3
Видео: AVC, 1280:720, 10 mbps, 50 fps
Аудио: AC3, 448 kbps, 48 kHz, 6 ch
Аудио 2: MP2, 256 kbps, 48 kHz, 2 ch

Отчёт DVDInfo/MediaInfo/BDInfo
Уникальный идентификатор : 227557033905109092016054801385613438548 (0xAB31E3FC17BA39DC903EF38A4F702E54)
Полное имя : H:\CAPTURE\Eddie Palmieri - Estival Jazz Lugano (2013)[HDTV 720p].mkv
Формат : Matroska
Версия формата : Version 4 / Version 2
Размер файла : 6,35 Гбайт
Продолжительность : 1 ч. 23 м.
Режим общего битрейта : Переменный
Общий поток : 10,9 Мбит/сек
Дата кодирования : UTC 2013-08-03 08:33:38
Программа кодирования : mkvmerge v6.3.0 ('You can't stop me!') built on Jun 28 2013 20:09:41
Библиотека кодирования : libebml v1.3.0 + libmatroska v1.4.0

Видео
Идентификатор : 1
Формат : AVC
Формат/Информация : Advanced Video Codec
Профиль формата : High@L4.0
Параметр CABAC формата : Да
Параметр ReFrames формата : 3 кадра
Параметр GOP формата : M=2, N=24
Идентификатор кодека : V_MPEG4/ISO/AVC
Продолжительность : 1 ч. 23 м.
Вид битрейта : Переменный
Битрейт : 10,0 Мбит/сек
Максимальный битрейт : 40,0 Мбит/сек
Ширина : 1280 пикселей
Высота : 720 пикселей
Соотношение сторон : 16:9
Режим частоты кадров : Постоянный
Частота кадров : 50,000 кадров/сек
Стандарт вещания : Component
Цветовое пространство : YUV
Субдискретизация насыщенности : 4:2:0
Битовая глубина : 8 бит
Тип развёртки : Прогрессивная
Бит/(Пиксели*Кадры) : 0.217
Размер потока : 5,81 Гбайт (92%)
Язык : English
Default : Да
Forced : Нет
Основные цвета : BT.709
Характеристики трансфера : BT.709
Коэффициенты матрицы : BT.709

Аудио #1
Идентификатор : 2
Формат : AC-3
Формат/Информация : Audio Coding 3
Расширение режима : CM (complete main)
Параметр Endianness формата : Big
Идентификатор кодека : A_AC3
Продолжительность : 1 ч. 23 м.
Вид битрейта : Постоянный
Битрейт : 448 Кбит/сек
Каналы : 6 каналов
Расположение каналов : Front: L C R, Side: L R, LFE
Частота : 48,0 КГц
Битовая глубина : 16 бит
Метод сжатия : С потерями
Размер потока : 266 Мбайт (4%)
Заголовок : AC3 6ch
Язык : English
Default : Да
Forced : Нет

Аудио #2
Идентификатор : 3
Формат : MPEG Audio
Версия формата : Version 1
Профиль формата : Layer 2
Идентификатор кодека : A_MPEG/L2
Идентификатор кодека/Подсказка : MP2
Продолжительность : 1 ч. 23 м.
Вид битрейта : Постоянный
Битрейт : 256 Кбит/сек
Каналы : 2 канала
Частота : 48,0 КГц
Метод сжатия : С потерями
Размер потока : 152 Мбайт (2%)
Заголовок : MP2 2ch
Язык : English
Default : Нет
Forced : Нет
Any questions - support@pro-jazz.com. Есть вопросы - support@pro-jazz.com
277
Нет комментариев. Ваш будет первым!