Вы используете незарегистрированную версию компонента "Вкладки"!

Поиск

2016 Seun Kuti & Egypt 80 - Singapore Jazz Fest [HDTV 1080i]

2016 Seun Kuti & Egypt 80 - Singapore Jazz Fest [HDTV 1080i]
Время звучания:
01:01:01
Главы (разбивка по трекам):
нет
Видео:
AVC, 1920x1080 (16:9), 5924 kbps (0.114 b/px), 25.00 fps
Аудио#1:
MPEG-1 Audio layer 2, 257 kbps (CBR), 48.0 KHz, 2 ch
Отчёт DVDInfo/MediaInfo/BDInfo
Общее
Уникальный идентификатор : 292268710067323825966216651591557239192 (0xDBE0E7F310542B31F65AD435F2C2D198)
Полное имя : \\NASF8F4EB\Videos\HD Video\S\Seun Anikulapo Kuti\2016 Seun Kuti & Egypt 80 - Singapore Jazz Fest [HDTV 1080i]\2016 Seun Kuti & Egypt 80 - Singapore Jazz Fest [HDTV 1080i].mkv
Формат : Matroska
Версия формата : Version 2
Размер файла : 2,69 Гбайт
Продолжительность : 1 ч. 1 м.
Общий поток : 6305 Кбит/сек
Программа кодирования : Lavf54.63.104
Библиотека кодирования : Lavf54.63.104

Видео
Идентификатор : 1
Формат : AVC
Формат/Информация : Advanced Video Codec
Профиль формата : High@L4
Настройки формата : CABAC / 4 Ref Frames
Параметр CABAC формата : Да
Параметр RefFrames формата : 4 кадра
Параметр GOP формата : M=4, N=28
Идентификатор кодека : V_MPEG4/ISO/AVC
Продолжительность : 1 ч. 1 м.
Битрейт : 5923 Кбит/сек
Ширина : 1920 пикселей
Высота : 1080 пикселей
Соотношение сторон : 16:9
Режим частоты кадров : Постоянный
Частота кадров : 25,000 кадров/сек
Стандарт вещания : Component
Цветовое пространство : YUV
Субдискретизация насыщенности : 4:2:0
Битовая глубина : 8 бит
Тип развёртки : Чересстрочная
Метод сохранения типа развёртки : Раздельные поля
Порядок развёртки : Верхнее поле первое
Бит/(Пиксели*Кадры) : 0.114
Размер потока : 2,52 Гбайт (94%)
Default : Нет
Forced : Нет
Цветовой диапазон : Limited
Основные цвета : BT.709
Характеристики трансфера : BT.709
Коэффициенты матрицы : BT.709

Аудио
Идентификатор : 2
Формат : MPEG Audio
Версия формата : Version 1
Профиль формата : Layer 2
Идентификатор кодека : A_MPEG/L2
Идентификатор кодека/Подсказка : MP2
Продолжительность : 1 ч. 1 м.
Вид битрейта : Постоянный
Битрейт : 256 Кбит/сек
Каналы : 2 канала
Частота : 48,0 КГц
Метод сжатия : С потерями
Размер потока : 112 Мбайт (4%)
Язык : Russian
Default : Да
Forced : Нет
Any questions - support@pro-jazz.com. Есть вопросы - support@pro-jazz.com
304
Нет комментариев. Ваш будет первым!