Вы используете незарегистрированную версию компонента "Вкладки"!

Поиск

2010 Mike Batt's Starry Starry Night - Jazz Open Stuttgart [HDTV 720p]

2010 Mike Batt's Starry Starry Night - Jazz Open Stuttgart [HDTV 720p]
Состав:
  • Anna Maria Kaufmann - vocals
  • Katie Melua - vocals
  • Till Brönner - vocals, trumpet
  • Curtis Stigers - vocals, tenor sax
  • Stuttgarter Philharmoniker / Leitung: Mike Batt
  • Mike Batt - vocals, piano
  • Mini Schulz - bass
  • Obi Jenne - drums
  • Jo Ambros - guitar
  • Olaf Polziehn - piano
Описание:

Продолжительность: 01:07:07
Год выпуска: 2010

Качество: HDTV 720p
Контейнер: TS
Видео кодек: H.264
Аудио кодек: MPEG
Видео: 12.2 Mbps, 1280*720 (16:9), at 50.000 fps, AVC (High@L3.2) (CABAC / 4 Ref Frames)
Аудио: German, 192 Kbps, 48.0 KHz, 2 channels, MPEG Audio (Version 1) (Layer 2)
Источник: Digital Satellite > SkyStar HD2 (TechniSat) > ts > raw data to HDD > Cypheros TS-Doctor > VideoReDo TVSuite v4 (cut) > ts

Отчёт DVDInfo/MediaInfo/BDInfo
General
ID : 1 (0x1)
Complete name : K:\rutracker.org_HD\SWR HD_Mike Batt's ''Starry Starry Night'' - Jazz Open Stuttgart 2010.ts
Format : MPEG-TS
File size : 6.12 GiB
Duration : 1h 7mn
Overall bit rate : 13.0 Mbps

Video
ID : 5121 (0x1401)
Menu ID : 1 (0x1)
Format : AVC
Format/Info : Advanced Video Codec
Format profile : High@L3.2
Format settings, CABAC : Yes
Format settings, ReFrames : 4 frames
Format settings, GOP : M=6, N=32
Codec ID : 27
Duration : 1h 7mn
Bit rate : 12.2 Mbps
Width : 1 280 pixels
Height : 720 pixels
Display aspect ratio : 16:9
Frame rate : 50.000 fps
Color space : YUV
Chroma subsampling : 4:2:0
Bit depth : 8 bits
Scan type : Progressive
Bits/(Pixel*Frame) : 0.265
Stream size : 5.72 GiB (94%)

Audio
ID : 5122 (0x1402)
Menu ID : 1 (0x1)
Format : MPEG Audio
Format version : Version 1
Format profile : Layer 2
Codec ID : 3
Duration : 1h 7mn
Bit rate mode : Constant
Bit rate : 192 Kbps
Channel(s) : 2 channels
Sampling rate : 48.0 KHz
Compression mode : Lossy
Stream size : 92.2 MiB (1%)
Language : German
Any questions - support@pro-jazz.com. Есть вопросы - support@pro-jazz.com
348
Нет комментариев. Ваш будет первым!