Поиск

2012 Esperanza Spalding - AVO Session [HDTV 720p]

2012 Esperanza Spalding - AVO Session [HDTV 720p]
Состав:
  • Esperanza Spalding - double bass,Electric Bass and Lead Vocal
  • Igmar Thomas - trumpet
  • Leala Cyr - trumpet and Baching Vocals
  • Jeff Galindo - trombone
  • Corey King - trombone
  • Dan "Daniele" Blake - Tenor and soprano sax
  • Renato Caranto - sax
  • Tia Fuller - sax
  • Aaron Burnett - sax
  • Jeff Lee Johnson - guitar
  • Leo Genovese - piano,Rhodes and Keyboards
  • Lyndon Rochelle - drums and Backing Vocals
Описание:

Продолжительность: 1:15:15
Год выпуска: 2012
Описание: "AVO Session 2012"
Musical Theater Basel
Basel, Switzerland
2012-November-07
Качество: HDTV 720p
Контейнер: MKV
Видео кодек: H.264
Аудио кодек: AC3
Видео: AVC, 1280:720, 9982 kbps, 50 fps
Аудио: AC3, 448 kbps, 48 kHz, 6 ch
Аудио 2: MP2, 256 kbps, 48 kHz, 2 ch

Отчёт DVDInfo/MediaInfo/BDInfo
Уникальный идентификатор : 248265189498280716672566281888077827147 (0xBAC622E1F5AD562FA9540891339DCC4B)
Полное имя : H:\CAPTURE\Esperanza Spalding - AVO Session 2012 [HDTV 720p].mkv
Формат : Matroska
Версия формата : Version 4 / Version 2
Размер файла : 5,73 Гбайт
Продолжительность : 1 ч. 15 м.
Режим общего битрейта : Переменный
Общий поток : 10,9 Мбит/сек
Дата кодирования : UTC 2010-02-22 21:41:31
Программа кодирования : mkvmerge v5.9.0 ('On The Loose') built on Dec 9 2012 15:37:01
Библиотека кодирования : libebml v1.3.0 + libmatroska v1.4.0

Видео
Идентификатор : 1
Формат : AVC
Формат/Информация : Advanced Video Codec
Профиль формата : High@L4.0
Параметр CABAC формата : Да
Параметр ReFrames формата : 3 кадра
Параметр GOP формата : M=2, N=24
Идентификатор кодека : V_MPEG4/ISO/AVC
Продолжительность : 1 ч. 15 м.
Вид битрейта : Переменный
Битрейт : 9982 Кбит/сек
Максимальный битрейт : 40,0 Мбит/сек
Ширина : 1280 пикселей
Высота : 720 пикселей
Соотношение сторон : 16:9
Режим частоты кадров : Постоянный
Частота кадров : 50,000 кадров/сек
Стандарт вещания : Component
Цветовое пространство : YUV
Субдискретизация насыщенности : 4:2:0
Битовая глубина : 8 бит
Тип развёртки : Прогрессивная
Бит/(Пиксели*Кадры) : 0.217
Размер потока : 5,25 Гбайт (92%)
Язык : Несколько языков
Default : Да
Forced : Нет
Основные цвета : BT.709
Характеристики трансфера : BT.709
Коэффициенты матрицы : BT.709

Аудио #1
Идентификатор : 2
Формат : AC-3
Формат/Информация : Audio Coding 3
Расширение режима : CM (complete main)
Параметр Endianness формата : Big
Идентификатор кодека : A_AC3
Продолжительность : 1 ч. 15 м.
Вид битрейта : Постоянный
Битрейт : 448 Кбит/сек
Каналы : 6 каналов
Расположение каналов : Front: L C R, Side: L R, LFE
Частота : 48,0 КГц
Битовая глубина : 16 бит
Метод сжатия : С потерями
Размер потока : 241 Мбайт (4%)
Заголовок : AC3
Язык : English
Default : Да
Forced : Нет

Аудио #2
Идентификатор : 3
Формат : MPEG Audio
Версия формата : Version 1
Профиль формата : Layer 2
Идентификатор кодека : A_MPEG/L2
Идентификатор кодека/Подсказка : MP2
Продолжительность : 1 ч. 15 м.
Вид битрейта : Постоянный
Битрейт : 256 Кбит/сек
Каналы : 2 канала
Частота : 48,0 КГц
Метод сжатия : С потерями
Размер потока : 138 Мбайт (2%)
Заголовок : MP2
Язык : English
Default : Нет
Forced : Нет
Скриншоты видео
2012 Esperanza Spalding - AVO Session [HDTV 720p] 02012 Esperanza Spalding - AVO Session [HDTV 720p] 12012 Esperanza Spalding - AVO Session [HDTV 720p] 22012 Esperanza Spalding - AVO Session [HDTV 720p] 32012 Esperanza Spalding - AVO Session [HDTV 720p] 42012 Esperanza Spalding - AVO Session [HDTV 720p] 52012 Esperanza Spalding - AVO Session [HDTV 720p] 62012 Esperanza Spalding - AVO Session [HDTV 720p] 7
Download available for power users only.
599
Нет комментариев. Ваш будет первым!