Вы используете незарегистрированную версию компонента "Вкладки"!

Поиск

2016 Bad Bad Not Good - Singapore Jazz Fest [HDTV 1080i]

2016 Bad Bad Not Good - Singapore Jazz Fest [HDTV 1080i]
Дата проведения концерта (записи):
4 марта 2016
Место проведения:
Singapore
Время звучания:
00:51:09
Главы (разбивка по трекам):
нет
Состав:
  • Alexander Sowinski - drums
  • Chester Hansen - bass
  • Matthew Tavares - piano
Видео:
AVC,1920*1080i (16:9), 5206kbps, 25fps
Аудио#1:
MPEG2, 256kbps, 48kHz, 2ch
Отчёт DVDInfo/MediaInfo/BDInfo
Общее
Уникальный идентификатор : 313026942032544985567200097573366615253 (0xEB7ECBCD9B11A5A20358D80AC10B4CD5)
Полное имя : \\NASF8F4EB\Videos\HD Video\Bad Bad Not Good\2016 Bad Bad Not Good - Singapore Jazz Fest [HDTV 1080i]\2016 Bad Bad Not Good - Singapore Jazz Fest [HDTV 1080i].mkv
Формат : Matroska
Версия формата : Version 2
Размер файла : 1,99 Гбайт
Продолжительность : 51 м. 9 с.
Общий поток : 5573 Кбит/сек
Программа кодирования : Lavf54.63.104
Библиотека кодирования : Lavf54.63.104

Видео
Идентификатор : 1
Формат : AVC
Формат/Информация : Advanced Video Codec
Профиль формата : High@L4
Настройки формата : CABAC / 4 Ref Frames
Параметр CABAC формата : Да
Параметр RefFrames формата : 4 кадра
Идентификатор кодека : V_MPEG4/ISO/AVC
Продолжительность : 51 м. 9 с.
Битрейт : 5206 Кбит/сек
Ширина : 1920 пикселей
Высота : 1080 пикселей
Соотношение сторон : 16:9
Режим частоты кадров : Постоянный
Частота кадров : 25,000 кадров/сек
Стандарт вещания : Component
Цветовое пространство : YUV
Субдискретизация насыщенности : 4:2:0
Битовая глубина : 8 бит
Тип развёртки : Чересстрочная
Метод сохранения типа развёртки : Раздельные поля
Порядок развёртки : Верхнее поле первое
Бит/(Пиксели*Кадры) : 0.100
Размер потока : 1,86 Гбайт (93%)
Default : Нет
Forced : Нет
Цветовой диапазон : Limited
Основные цвета : BT.709
Характеристики трансфера : BT.709
Коэффициенты матрицы : BT.709

Аудио
Идентификатор : 2
Формат : MPEG Audio
Версия формата : Version 1
Профиль формата : Layer 2
Идентификатор кодека : A_MPEG/L2
Идентификатор кодека/Подсказка : MP2
Продолжительность : 51 м. 9 с.
Вид битрейта : Постоянный
Битрейт : 256 Кбит/сек
Каналы : 2 канала
Частота : 48,0 КГц
Метод сжатия : С потерями
Размер потока : 93,7 Мбайт (5%)
Язык : Russian
Default : Да
Forced : Нет
Any questions - support@pro-jazz.com. Есть вопросы - support@pro-jazz.com
322
Нет комментариев. Ваш будет первым!