Вы используете незарегистрированную версию компонента "Вкладки"!

Поиск

2010 Contact - Jazz a Porquerolles [HDTV 1080i]

2010 Contact - Jazz a Porquerolles [HDTV 1080i]
Место проведения:
Jazz à Porquerolles / Enregistré au Fort Saint-Agatle le de Porquerolles
Состав:
Описание:

Продолжительность: 00:52:28
Год выпуска: 2010

Качество: HDTV 1080i
Контейнер: TS
Видео кодек: H.264
Аудио кодек: MPEG
Видео: 6 307 Kbps, 1920*1080 (16:9), at 25.000 fps, AVC (Main@L4.0) (CABAC / 3 Ref Frames)
Аудио: English, 256 Kbps, 48.0 KHz, 2 channels, MPEG Audio (Version 1) (Layer 2)

Огромная Благодарность уважаемому greggr – за предоставленный материал ...
Спасибо большое !!!

Отчёт DVDInfo/MediaInfo/BDInfo
General
ID : 5800 (0x16A8)
Complete name : E:\Dave Liebman, Billy Hart, Marc Copland, John Abercrombie, Drew Gress - Porquerolles 2010\Dave Liebman, Billy Hart, Marc Copland, John Abercrombie & Drew Gress - Jazz A Porquerolles 2010.ts
Format : MPEG-TS
File size : 2.53 GiB
Duration : 52mn 28s
Overall bit rate : 6 907 Kbps

Video
ID : 2007 (0x7D7)
Menu ID : 3507 (0xDB3)
Format : AVC
Format/Info : Advanced Video Codec
Format profile : Main@L4.0
Format settings, CABAC : Yes
Format settings, ReFrames : 3 frames
Format settings, GOP : M=3, N=30
Codec ID : 27
Duration : 52mn 28s
Bit rate : 6 307 Kbps
Width : 1 920 pixels
Height : 1 080 pixels
Display aspect ratio : 16:9
Frame rate : 25.000 fps
Color space : YUV
Chroma subsampling : 4:2:0
Bit depth : 8 bits
Scan type : MBAFF
Bits/(Pixel*Frame) : 0.122
Stream size : 2.31 GiB (91%)

Audio
ID : 3007 (0xBBF)
Menu ID : 3507 (0xDB3)
Format : MPEG Audio
Format version : Version 1
Format profile : Layer 2
Codec ID : 3
Duration : 52mn 28s
Bit rate mode : Constant
Bit rate : 256 Kbps
Channel(s) : 2 channels
Sampling rate : 48.0 KHz
Compression mode : Lossy
Delay relative to video : -816ms
Stream size : 96.1 MiB (4%)
Language : English

Menu
ID : 1007 (0x3EF)
Menu ID : 3507 (0xDB3)
Duration : 52mn 28s
List : 2007 (0x7D7) (AVC) / 3007 (0xBBF) (MPEG Audio, English)
Language : / English
Any questions - support@pro-jazz.com. Есть вопросы - support@pro-jazz.com
253
12:17