Поиск

2017 Snarky Puppy - Cucha Vulcha Live In Paris [HDTV 1080p]

2017 Snarky Puppy - Cucha Vulcha Live In Paris [HDTV 1080p]
Дата проведения концерта (записи):
18 мая 2017
Место проведения:
L'Olympia Bruno Coquatrix
Время звучания:
01:32:41
Главы (разбивка по трекам):
нет
Состав:

Snarky Puppy:

  • Mike Maher, trumpet, fluegel horn
  • Justin Stanton, trumpet, keyboards
  • Chris Bullock, flute, tenor sax
  • Bobby Sparks, synthesizer, Hammond B3 organ, clavinet
  • Bob Lanzetti, electric guitar
  • Zack Brock, violin
  • Michael League, acoustic double bass
  • Jarnell Lewis, drums
  • Nate Werth, percussion
  • + guest:
  • Becca Stevens
  • Liam Robinson, keyboards, vocal
  • Jordan Perlson, drums, percussion
Треклист:

01    Big Ugly    
02    Semente    
03    Grown Folks    
04    Beep Box    
05    Tarova    
06    Gemini    
07    What About Me?    
08    Sleeper    
09    Shofukan    
10    Lingus

Видео:
AVC,1920*1080p (16:9), 6548kbps, 25fps, High@L4.1, CABAC / 4 Ref Frames
Аудио#1:
AAC LC, 256kbps, Constant, 48kHz, 2ch stereo
Отчёт DVDInfo/MediaInfo/BDInfo
Общее
Полное имя : \\2017 Snarky Puppy - Cucha Vulcha Live In Paris [HDTV 1080p].mp4
Формат : MPEG-4
Профиль формата : Base Media
Идентификатор кодека : isom (isom/iso2/avc1/mp41)
Размер файла : 4,88 Гбайт
Продолжительность : 1 ч. 42 м.
Общий поток : 6818 Кбит/сек
Программа кодирования : VideoReDo (Lavf57.71.100)

Видео
Идентификатор : 1
Формат : AVC
Формат/Информация : Advanced Video Codec
Профиль формата : High@L4.1
Настройки формата : CABAC / 4 Ref Frames
Параметр CABAC формата : Да
Параметр RefFrames формата : 4 кадра
Идентификатор кодека : avc1
Идентификатор кодека/Информация : Advanced Video Coding
Продолжительность : 1 ч. 42 м.
Битрейт : 6548 Кбит/сек
Ширина : 1920 пикселей
Высота : 1080 пикселей
Соотношение сторон : 16:9
Режим частоты кадров : Постоянный
Частота кадров : 25,000 кадров/сек
Цветовое пространство : YUV
Субдискретизация насыщенности : 4:2:0
Битовая глубина : 8 бит
Тип развёртки : Прогрессивная
Бит/(Пиксели*Кадры) : 0.126
Размер потока : 4,69 Гбайт (96%)
Цветовой диапазон : Limited
Основные цвета : BT.709
Характеристики трансфера : BT.709
Коэффициенты матрицы : BT.709
Codec configuration box : avcC

Аудио
Идентификатор : 2
Формат : AAC LC
Формат/Информация : Advanced Audio Codec Low Complexity
Идентификатор кодека : mp4a-40-2
Продолжительность : 1 ч. 42 м.
Duration_LastFrame : -21 мс.
Вид битрейта : Постоянный
Битрейт : 256 Кбит/сек
Каналы : 2 канала
ChannelLayout : L R
Частота : 48,0 КГц
Частота кадров : 46,875 кадров/сек (1024 SPF)
Метод сжатия : С потерями
Размер потока : 188 Мбайт (4%)
Язык : Russian
Default : Да
AlternateGroup/String : 1
Скриншоты видео
2017 Snarky Puppy - Cucha Vulcha Live In Paris [HDTV 1080p] 02017 Snarky Puppy - Cucha Vulcha Live In Paris [HDTV 1080p] 12017 Snarky Puppy - Cucha Vulcha Live In Paris [HDTV 1080p] 22017 Snarky Puppy - Cucha Vulcha Live In Paris [HDTV 1080p] 32017 Snarky Puppy - Cucha Vulcha Live In Paris [HDTV 1080p] 42017 Snarky Puppy - Cucha Vulcha Live In Paris [HDTV 1080p] 5
Download available for power users only.
578
Raf
17:43
Дайте, пожалуйста, скачать))
11:10
С просьбами встать на раздачу лучше обращаться посредством личного сообщения.