Поиск

2016 Jacob Collier - Jazz A Vienne Fest [HDTV 1080i]

2016 Jacob Collier - Jazz A Vienne Fest [HDTV 1080i]
Главы (разбивка по трекам):
нет
Качество:
HDTV
Разрешение видео/развёртка:
1080i
Контейнер:
MKV
Видео кодек:
HEVC
Аудио кодек:
AC3
Видео:
AVC,1920*1080i (16:9), 5236kbps, 25fps
Аудио:
MPEG2, 256kbps, 48kHz, 2ch
Отчёт DVDInfo/MediaInfo/BDInfo
Общее
Уникальный идентификатор : 262053810017778760772152819209591459182 (0xC525BA5C9888F9B7D73A7E4BD51E0D6E)
Полное имя : \\NASF8F4EB\Videos\HD Video\Jacob Collier\2016 Jacob Collier - Jazz A Vienne Fest [HDTV 1080i]\2016 Jacob Collier - Jazz A Vienne Fest [HDTV 1080i].mkv
Формат : Matroska
Версия формата : Version 2
Размер файла : 2,93 Гбайт
Продолжительность : 1 ч. 14 м.
Общий поток : 5604 Кбит/сек
Программа кодирования : Lavf54.63.104
Библиотека кодирования : Lavf54.63.104

Видео
Идентификатор : 1
Формат : AVC
Формат/Информация : Advanced Video Codec
Профиль формата : High@L4
Настройки формата : CABAC / 4 Ref Frames
Параметр CABAC формата : Да
Параметр RefFrames формата : 4 кадра
Идентификатор кодека : V_MPEG4/ISO/AVC
Продолжительность : 1 ч. 14 м.
Битрейт : 5236 Кбит/сек
Ширина : 1920 пикселей
Высота : 1080 пикселей
Соотношение сторон : 16:9
Режим частоты кадров : Постоянный
Частота кадров : 25,000 кадров/сек
Стандарт вещания : Component
Цветовое пространство : YUV
Субдискретизация насыщенности : 4:2:0
Битовая глубина : 8 бит
Тип развёртки : Чересстрочная
Метод сохранения типа развёртки : Раздельные поля
Порядок развёртки : Верхнее поле первое
Бит/(Пиксели*Кадры) : 0.101
Размер потока : 2,74 Гбайт (93%)
Default : Нет
Forced : Нет
Цветовой диапазон : Limited
Основные цвета : BT.709
Характеристики трансфера : BT.709
Коэффициенты матрицы : BT.709

Аудио
Идентификатор : 2
Формат : MPEG Audio
Версия формата : Version 1
Профиль формата : Layer 2
Идентификатор кодека : A_MPEG/L2
Идентификатор кодека/Подсказка : MP2
Продолжительность : 1 ч. 14 м.
Вид битрейта : Постоянный
Битрейт : 256 Кбит/сек
Каналы : 2 канала
Частота : 48,0 КГц
Метод сжатия : С потерями
Размер потока : 137 Мбайт (5%)
Язык : Russian
Default : Да
Forced : Нет
Скриншоты видео
2016 Jacob Collier - Jazz A Vienne Fest [HDTV 1080i] 02016 Jacob Collier - Jazz A Vienne Fest [HDTV 1080i] 12016 Jacob Collier - Jazz A Vienne Fest [HDTV 1080i] 22016 Jacob Collier - Jazz A Vienne Fest [HDTV 1080i] 32016 Jacob Collier - Jazz A Vienne Fest [HDTV 1080i] 42016 Jacob Collier - Jazz A Vienne Fest [HDTV 1080i] 5
Приватный:
Да (DHT отключён)
Размер:
2.93 Гб (3,149,308,751 байт) » файлов: 1
Участники:
8 раздают, 1 качают (9 участников всего)
Внешние участники:
--- [ Обновить ]
No seeders - write a personal message to user M0p94ok. Нет сидеров - пишите личное сообщение пользователю M0p94ok.
429
Нет комментариев. Ваш будет первым!