Вы используете незарегистрированную версию компонента "Вкладки"!

Поиск

2012 Norah Jones - at We Love Green Festival [HDTV 1080i]

2012 Norah Jones - at We Love Green Festival [HDTV 1080i]
Описание:

Продолжительность: 01:02:19
Год выпуска: 2013

Качество: HDTV 1080i
Контейнер: TS
Видео кодек: H.264
Аудио кодек: AC3
Видео: Mpeg4 AVC, 1920x1080, 5980 kbps, 25 fps
Аудио: AC3, 256 kbps, 48 kHz, stereo
Аудио 2: AC3, 256 kbps, 48 kHz, stereo
Аудио 3: AC3, 256 kbps, 48 kHz, stereo

Отчёт DVDInfo/MediaInfo/BDInfo
General
ID : 1 (0x1)
Complete name : D:\Downloads\Norah Jones - at We Love Green Festival 2012.ts
Format : MPEG-TS
File size : 3.18 GiB
Duration : 1h 2mn
Overall bit rate mode : Variable
Overall bit rate : 7 309 Kbps

Video
ID : 571 (0x23B)
Menu ID : 1 (0x1)
Format : AVC
Format/Info : Advanced Video Codec
Format profile : High@L4.0
Format settings, CABAC : Yes
Format settings, ReFrames : 3 frames
Codec ID : 27
Duration : 1h 2mn
Bit rate : 5 978 Kbps
Width : 1 920 pixels
Height : 1 080 pixels
Display aspect ratio : 16:9
Frame rate : 25.000 fps
Standard : Component
Color space : YUV
Chroma subsampling : 4:2:0
Bit depth : 8 bits
Scan type : Interlaced
Scan order : Top Field First
Bits/(Pixel*Frame) : 0.115
Stream size : 2.60 GiB (82%)
Color primaries : BT.601 PAL
Transfer characteristics : BT.470 System B, BT.470 System G
Matrix coefficients : BT.601

Audio #1
ID : 572 (0x23C)
Menu ID : 1 (0x1)
Format : AC-3
Format/Info : Audio Coding 3
Mode extension : CM (complete main)
Format settings, Endianness : Big
Codec ID : 6
Duration : 1h 2mn
Bit rate mode : Constant
Bit rate : 256 Kbps
Channel(s) : 2 channels
Channel positions : Front: L R
Sampling rate : 48.0 KHz
Bit depth : 16 bits
Compression mode : Lossy
Stream size : 114 MiB (4%)
Language : French

Audio #2
ID : 573 (0x23D)
Menu ID : 1 (0x1)
Format : AC-3
Format/Info : Audio Coding 3
Mode extension : CM (complete main)
Format settings, Endianness : Big
Codec ID : 6
Duration : 1h 2mn
Bit rate mode : Constant
Bit rate : 256 Kbps
Channel(s) : 2 channels
Channel positions : Front: L R
Sampling rate : 48.0 KHz
Bit depth : 16 bits
Compression mode : Lossy
Stream size : 114 MiB (4%)
Language : qaa

Audio #3
ID : 574 (0x23E)
Menu ID : 1 (0x1)
Format : AC-3
Format/Info : Audio Coding 3
Mode extension : CM (complete main)
Format settings, Endianness : Big
Codec ID : 6
Duration : 1h 2mn
Bit rate mode : Constant
Bit rate : 256 Kbps
Channel(s) : 2 channels
Channel positions : Front: L R
Sampling rate : 48.0 KHz
Bit depth : 16 bits
Compression mode : Lossy
Stream size : 114 MiB (4%)
Language : qad

Audio #4
ID : 577 (0x241)
Menu ID : 1 (0x1)
Format : AC-3
Format/Info : Audio Coding 3
Mode extension : CM (complete main)
Format settings, Endianness : Big
Codec ID : 6
Duration : 1h 2mn
Bit rate mode : Constant
Bit rate : 192 Kbps
Channel(s) : 2 channels
Channel positions : Front: L R
Sampling rate : 48.0 KHz
Bit depth : 16 bits
Compression mode : Lossy
Stream size : 85.6 MiB (3%)
Language : German
Any questions - support@pro-jazz.com. Есть вопросы - support@pro-jazz.com
219
Нет комментариев. Ваш будет первым!