Поиск

2019 Chick Corea & Spanish Heart Band - Flamenco - At Jazz à Vienne [HDTV 1080i]

2019 Chick Corea & Spanish Heart Band - Flamenco - At Jazz à Vienne [HDTV 1080i]
Стили:
Дата проведения концерта (записи):
3 июля 2019
Место проведения:
Jazz à Vienne Festival
Время звучания:
01:46:02
Главы (разбивка по трекам):
нет
Качество:
HDTV
Разрешение видео/развёртка:
1080i
Контейнер:
MKV
Видео кодек:
HEVC
Аудио кодек:
FLAC
Видео:
AVC,1920*1080i (16:9), 4385kbps, 25fps
Аудио:
MPEG2, 256kbps, 48kHz, 2ch
Состав:
  • Chick Corea - piano, electric keys
  • Jorge Pardo - flute, sax
  • Nino Josele - classic guitar
  • Carlitos Del Puerto - bass
  • Marcus Gilmore - drums
  • Michael Rodriguez - trumpet
  • Steve Davis - trombone
  • Nino de los Reyes - tap dancer
Треклист:

1. Antidote
2. Ziryab
3. Duende
4. Yellow nimbus
5. Spain

Описание:

Чик Кориа и группа "Spanish Heart Band". "Фламенко". Фестиваль джаза во Вьенне. Прямая трансляция.

Отчёт DVDInfo/MediaInfo/BDInfo
Общее
Уникальный идентификатор : 312250675936168533311447276896885055408 (0xEAE94AEDFF80D35B28713BBD50AE9FB0)
Полное имя : C:\Users\julpu\Music\2019 Chick Corea & Spanish Heart Band - Flamenco - At Jazz a Vienne [HDTV 1080i].mkv
Формат : Matroska
Версия формата : Version 2
Размер файла : 3,51 Гбайт
Продолжительность : 1 ч. 46 м.
Общий поток : 4735 Кбит/сек
Программа кодирования : Lavf54.63.104
Библиотека кодирования : Lavf54.63.104

Видео
Идентификатор : 1
Формат : AVC
Формат/Информация : Advanced Video Codec
Профиль формата : High@L4
Настройки формата : CABAC / 4 Ref Frames
Параметр CABAC формата : Да
Параметр RefFrames формата : 4 кадра
Параметр GOP формата : M=4, N=28
Идентификатор кодека : V_MPEG4/ISO/AVC
Продолжительность : 1 ч. 46 м.
Битрейт : 4385 Кбит/сек
Ширина : 1920 пикселей
Высота : 1080 пикселей
Соотношение сторон : 16:9
Режим частоты кадров : Постоянный
Частота кадров : 25,000 кадров/сек
Стандарт вещания : Component
Цветовое пространство : YUV
Субдискретизация насыщенности : 4:2:0
Битовая глубина : 8 бит
Тип развёртки : Чересстрочная
Метод сохранения типа развёртки : Раздельные поля
Порядок развёртки : Верхнее поле первое
Бит/(Пиксели*Кадры) : 0.085
Размер потока : 3,25 Гбайт (93%)
Default : Нет
Forced : Нет
Цветовой диапазон : Limited
Основные цвета : BT.709
Характеристики трансфера : BT.709
Коэффициенты матрицы : BT.709

Аудио
Идентификатор : 2
Формат : MPEG Audio
Версия формата : Version 1
Профиль формата : Layer 2
Идентификатор кодека : A_MPEG/L2
Идентификатор кодека/Подсказка : MP2
Продолжительность : 1 ч. 46 м.
Вид битрейта : Постоянный
Битрейт : 256 Кбит/сек
Каналы : 2 канала
Частота : 48,0 КГц
Метод сжатия : С потерями
Размер потока : 194 Мбайт (5%)
Язык : Russian
Default : Да
Forced : Нет
Скриншоты видео
2019 Chick Corea & Spanish Heart Band - Flamenco - At Jazz à Vienne [HDTV 1080i] 02019 Chick Corea & Spanish Heart Band - Flamenco - At Jazz à Vienne [HDTV 1080i] 12019 Chick Corea & Spanish Heart Band - Flamenco - At Jazz à Vienne [HDTV 1080i] 22019 Chick Corea & Spanish Heart Band - Flamenco - At Jazz à Vienne [HDTV 1080i] 32019 Chick Corea & Spanish Heart Band - Flamenco - At Jazz à Vienne [HDTV 1080i] 42019 Chick Corea & Spanish Heart Band - Flamenco - At Jazz à Vienne [HDTV 1080i] 52019 Chick Corea & Spanish Heart Band - Flamenco - At Jazz à Vienne [HDTV 1080i] 62019 Chick Corea & Spanish Heart Band - Flamenco - At Jazz à Vienne [HDTV 1080i] 7
Приватный:
Да (DHT отключён)
Размер:
3.51 Гб (3,766,061,084 байт) » файлов: 2
Участники:
12 раздают, 0 качают (12 участников всего)
Внешние участники:
--- [ Обновить ]
No seeders - write a personal message to user M0p94ok. Нет сидеров - пишите личное сообщение пользователю M0p94ok.
1794
Нет комментариев. Ваш будет первым!