Поиск

2012 Philip Catherine - 70th Birthday Tour - Skoda Jazz Festival [HDTV 1080i]

2012 Philip Catherine - 70th Birthday Tour - Skoda Jazz Festival [HDTV 1080i]
Состав:
  • Philip Catherine - guitare
  • Nicola Andrioli - piano
  • Philippe Aerts - bass
  • Antoine Pierre - drums
  • Isabelle Catherine - vocal (3, 4)

Škoda Jazz Festival / Concert de Roma / Atwerp, Thu 13 Dec 2012

Огромная Благодарность уважаемому greggr – за предоставленный материал ...
Спасибо большое !!!

Треклист:

01. Why Can't You Behave (Cole Porter)
02. La Prima Vera (Nicola Andrioli)
03. Côté Jardin (Philip Catherine / Jacques Duvall)
04. You Don't Know What Love Is (Gene de Paul / Don Raye)
05. Janet (Philip Catherine)
06. Lost Land (Nicola Andrioli)
07. Seven Teas (Philip Catherine)
08. Misty Cliffs (Philip Catherine)
09. Over The Rainbow (Harold Arlen)
10. Francis Delight (Philip Catherine)

Описание:

Продолжительность: 01:09:48
Год выпуска: 2012

Качество: HDTV 1080i
Контейнер: TS
Видео кодек: H.264
Аудио кодек: MPEG
Видео: 6 307 Kbps, 1920*1080 (16:9), at 25.000 fps, AVC (Main@L4.0) (CABAC / 3 Ref Frames)
Аудио: English, 256 Kbps, 48.0 KHz, 2 channels, MPEG Audio (Version 1) (Layer 2)

Отчёт DVDInfo/MediaInfo/BDInfo
General
ID : 1 (0x1)
Complete name : E:\Philip Catherine 70th Birthday Tour - Skoda Jazz Festival 2012\Philip Catherine 70th Birthday Tour - Skoda Jazz Festival 2012.ts
Format : MPEG-TS
File size : 3.37 GiB
Duration : 1h 9mn
Overall bit rate mode : Variable
Overall bit rate : 6 907 Kbps
Maximum Overall bit rate : 35.5 Mbps

Video
ID : 4113 (0x1011)
Menu ID : 1 (0x1)
Format : AVC
Format/Info : Advanced Video Codec
Format profile : Main@L4.0
Format settings, CABAC : Yes
Format settings, ReFrames : 3 frames
Format settings, GOP : M=3, N=30
Codec ID : 27
Duration : 1h 9mn
Bit rate mode : Variable
Bit rate : 6 307 Kbps
Maximum bit rate : 40.0 Mbps
Width : 1 920 pixels
Height : 1 080 pixels
Display aspect ratio : 16:9
Frame rate : 25.000 fps
Color space : YUV
Chroma subsampling : 4:2:0
Bit depth : 8 bits
Scan type : MBAFF
Bits/(Pixel*Frame) : 0.122
Stream size : 3.08 GiB (91%)

Audio
ID : 4352 (0x1100)
Menu ID : 1 (0x1)
Format : MPEG Audio
Format version : Version 1
Format profile : Layer 2
Codec ID : 4
Duration : 1h 9mn
Bit rate mode : Constant
Bit rate : 256 Kbps
Channel(s) : 2 channels
Sampling rate : 48.0 KHz
Compression mode : Lossy
Delay relative to video : 57ms
Stream size : 128 MiB (4%)
Language : English
Скриншоты видео
2012 Philip Catherine - 70th Birthday Tour - Skoda Jazz Festival [HDTV 1080i] 02012 Philip Catherine - 70th Birthday Tour - Skoda Jazz Festival [HDTV 1080i] 12012 Philip Catherine - 70th Birthday Tour - Skoda Jazz Festival [HDTV 1080i] 22012 Philip Catherine - 70th Birthday Tour - Skoda Jazz Festival [HDTV 1080i] 32012 Philip Catherine - 70th Birthday Tour - Skoda Jazz Festival [HDTV 1080i] 42012 Philip Catherine - 70th Birthday Tour - Skoda Jazz Festival [HDTV 1080i] 52012 Philip Catherine - 70th Birthday Tour - Skoda Jazz Festival [HDTV 1080i] 62012 Philip Catherine - 70th Birthday Tour - Skoda Jazz Festival [HDTV 1080i] 72012 Philip Catherine - 70th Birthday Tour - Skoda Jazz Festival [HDTV 1080i] 82012 Philip Catherine - 70th Birthday Tour - Skoda Jazz Festival [HDTV 1080i] 92012 Philip Catherine - 70th Birthday Tour - Skoda Jazz Festival [HDTV 1080i] 102012 Philip Catherine - 70th Birthday Tour - Skoda Jazz Festival [HDTV 1080i] 11
По всем вопросам пишите личное сообщение пользователю M0p94ok.
446
Нет комментариев. Ваш будет первым!