Вы используете незарегистрированную версию компонента "Вкладки"!

Поиск

2013 The Brand New Heavies - Estival Jazz Lugano [HDTV 720p]

2013 The Brand New Heavies - Estival Jazz Lugano [HDTV 720p]
Состав:
  • Andrew Levy, b,
  • Simon Bartholomew, g,
  • Jan Kincaid, dr,
  • Dawn Joseph, voc,
  • N'Dea Davenport,voc
Описание:

Продолжительность: 1h 16mn
Год выпуска: 2013

Качество: HDTV 720p
Контейнер: TS
Видео кодек: H.264
Аудио кодек: AC3
Видео: H.264,1280*720p,~10.2 Mbps,50fps
Аудио: MPEG Audio,192 Kbps,48.0 KHz, 2 channels
Аудио 2: MPEG Audio,192 Kbps,48.0 KHz, 2 channels
Аудио 3: AC-3,448 Kbps,48.0 KHz, 6 channels

Отчёт DVDInfo/MediaInfo/BDInfo
\downloads\complete\20130707 0143 - RSI LA 2 HD - Estival Jazz.ts
Format : MPEG-TS
File size : 6.24 GiB
Duration : 1h 16mn
Overall bit rate : 11.7 Mbps

Video
ID : 562 (0x232)
Menu ID : 951 (0x3B7)
Format : AVC
Format/Info : Advanced Video Codec
Format profile : High@L4.0
Format settings, CABAC : Yes
Format settings, ReFrames : 3 frames
Format settings, GOP : M=2, N=24
Codec ID : 27
Duration : 1h 16mn
Bit rate : 10.2 Mbps
Width : 1 280 pixels
Height : 720 pixels
Display aspect ratio : 16:9
Frame rate : 50.000 fps
Standard : Component
Color space : YUV
Chroma subsampling : 4:2:0
Bit depth : 8 bits
Scan type : Progressive
Bits/(Pixel*Frame) : 0.222
Stream size : 5.49 GiB (88%)
Color primaries : BT.709-5, BT.1361, IEC 61966-2-4, SMPTE RP177
Transfer characteristics : BT.709-5, BT.1361
Matrix coefficients : BT.709-5, BT.1361, IEC 61966-2-4 709, SMPTE RP177

Audio #1
ID : 563 (0x233)
Menu ID : 951 (0x3B7)
Format : MPEG Audio
Format version : Version 1
Format profile : Layer 2
Mode : Joint stereo
Mode extension : Intensity Stereo + MS Stereo
Codec ID : 3
Duration : 1h 16mn
Bit rate mode : Constant
Bit rate : 192 Kbps
Channel(s) : 2 channels
Sampling rate : 48.0 KHz
Compression mode : Lossy
Delay relative to video : -669ms
Stream size : 105 MiB (2%)
Language : Italian
Language, more info : Clean effects

Audio #2
ID : 564 (0x234)
Menu ID : 951 (0x3B7)
Format : MPEG Audio
Format version : Version 1
Format profile : Layer 2
Mode : Joint stereo
Mode extension : Intensity Stereo + MS Stereo
Codec ID : 3
Duration : 1h 16mn
Bit rate mode : Constant
Bit rate : 192 Kbps
Channel(s) : 2 channels
Sampling rate : 48.0 KHz
Compression mode : Lossy
Delay relative to video : -693ms
Stream size : 105 MiB (2%)
Language : English
Language, more info : Clean effects

Audio #3
ID : 565 (0x235)
Menu ID : 951 (0x3B7)
Format : AC-3
Format/Info : Audio Coding 3
Mode extension : CM (complete main)
Format settings, Endianness : Big
Codec ID : 6
Duration : 1h 16mn
Bit rate mode : Constant
Bit rate : 448 Kbps
Channel(s) : 6 channels
Channel positions : Front: L C R, Side: L R, LFE
Sampling rate : 48.0 KHz
Bit depth : 16 bits
Compression mode : Lossy
Delay relative to video : -741ms
Stream size : 246 MiB (4%)
Language : Italian
Language, more info : Clean effects

Text #1
ID : 567 (0x237)-100
Menu ID : 951 (0x3B7)
Format : Teletext
Language : Italian

Text #2
ID : 567 (0x237)-777
Menu ID : 951 (0x3B7)
Format : Teletext Subtitle
Language : Italian

Menu
ID : 561 (0x231)
Menu ID : 951 (0x3B7)
Duration : 1h 16mn
List : 562 (0x232) (AVC) / 563 (0x233) (MPEG Audio, Italian) / 564 (0x234) (MPEG Audio, English) / 565 (0x235) (AC-3, Italian) / 567 (0x237) ()
Language : / Italian / English /
Any questions - support@pro-jazz.com. Есть вопросы - support@pro-jazz.com
424
Нет комментариев. Ваш будет первым!