Поиск

2013 Roscoe Mitchell - Live at Porgy and Bess, Vienna [HDTV 1080i]

2013  Roscoe Mitchell - Live at Porgy and Bess, Vienna [HDTV 1080i]
Состав:
  • ROSCOE MITCHELL - alto sax, soprano sax
Треклист:

- The Flow of Things I
- The Flow of Things II
- A Cactus and a Rose
- WR/C2A Opus I

Porgy & Bess club, Vienna, January 31, 2013
Огромная Благодарность уважаемому greggr – за предоставленный материал ...
Спасибо большое !!!

Описание:

Продолжительность: 00:55:07
Год выпуска: 2013

Качество: HDTV 1080i
Контейнер: TS
Видео кодек: H.264
Аудио кодек: MPEG
Видео: 4 511 Kbps, 1920*1080 (16:9), at 25.000 fps, AVC (Component) (Main@L4.0) (CABAC / 4 Ref Frames)
Аудио: 256 Kbps, 48.0 KHz, 2 channels, MPEG Audio (Version 1) (Layer 2) (Joint stereo / Intensity Stereo + MS Stereo)

Отчёт DVDInfo/MediaInfo/BDInfo
General
ID : 3226 (0xC9A)
Complete name : E:\Roscoe Mitchell solo - Live at Porgy & Bess club (2013) HDTV 1080i\Roscoe Mitchell solo - Live at Porgy & Bess club 2013.ts
Format : MPEG-TS
File size : 1.93 GiB
Duration : 55mn 7s
Overall bit rate : 5 017 Kbps

Video
ID : 1601 (0x641)
Menu ID : 5606 (0x15E6)
Format : AVC
Format/Info : Advanced Video Codec
Format profile : Main@L4.0
Format settings, CABAC : Yes
Format settings, ReFrames : 4 frames
Format settings, GOP : M=3, N=30
Codec ID : 27
Duration : 55mn 6s
Bit rate : 4 511 Kbps
Width : 1 920 pixels
Height : 1 080 pixels
Display aspect ratio : 16:9
Frame rate : 25.000 fps
Standard : Component
Color space : YUV
Chroma subsampling : 4:2:0
Bit depth : 8 bits
Scan type : Interlaced
Scan order : Top Field First
Bits/(Pixel*Frame) : 0.087
Stream size : 1.74 GiB (90%)
Color primaries : BT.709-5, BT.1361, IEC 61966-2-4, SMPTE RP177
Transfer characteristics : BT.709-5, BT.1361
Matrix coefficients : BT.709-5, BT.1361, IEC 61966-2-4 709, SMPTE RP177

Audio
ID : 1602 (0x642)
Menu ID : 5606 (0x15E6)
Format : MPEG Audio
Format version : Version 1
Format profile : Layer 2
Mode : Joint stereo
Mode extension : Intensity Stereo + MS Stereo
Codec ID : 3
Duration : 55mn 7s
Bit rate mode : Constant
Bit rate : 256 Kbps
Channel(s) : 2 channels
Sampling rate : 48.0 KHz
Compression mode : Lossy
Delay relative to video : -438ms
Stream size : 101 MiB (5%)

Menu
ID : 1600 (0x640)
Menu ID : 5606 (0x15E6)
Duration : 55mn 7s
List : 1601 (0x641) (AVC) / 1602 (0x642) (MPEG Audio)
Скриншоты видео
2013  Roscoe Mitchell - Live at Porgy and Bess, Vienna [HDTV 1080i] 02013  Roscoe Mitchell - Live at Porgy and Bess, Vienna [HDTV 1080i] 12013  Roscoe Mitchell - Live at Porgy and Bess, Vienna [HDTV 1080i] 22013  Roscoe Mitchell - Live at Porgy and Bess, Vienna [HDTV 1080i] 32013  Roscoe Mitchell - Live at Porgy and Bess, Vienna [HDTV 1080i] 42013  Roscoe Mitchell - Live at Porgy and Bess, Vienna [HDTV 1080i] 52013  Roscoe Mitchell - Live at Porgy and Bess, Vienna [HDTV 1080i] 62013  Roscoe Mitchell - Live at Porgy and Bess, Vienna [HDTV 1080i] 7
По всем вопросам пишите личное сообщение пользователю M0p94ok.
560
Нет комментариев. Ваш будет первым!