Вы используете незарегистрированную версию компонента "Вкладки"!

Поиск

2013 Sidsel Endresen & Stian Westerhus - Live At Porgy and Bess, Vienna [HDTV 1080i]

2013 Sidsel Endresen & Stian Westerhus - Live At Porgy and Bess, Vienna [HDTV 1080i]
Состав:
  • Sidsel Endresen - vocals
  • Stian Westerhus - guitar
Описание:

Продолжительность: 00:56:22
Год выпуска: 2013

Качество: HDTV 1080i
Контейнер: TS
Видео кодек: H.264
Аудио кодек: MPEG
Видео: 4 110 Kbps, 1920*1080 (16:9), at 25.000 fps, AVC (Component) (Main@L4.0) (CABAC / 4 Ref Frames)
Аудио: 256 Kbps, 48.0 KHz, 2 channels, MPEG Audio (Version 1) (Layer 2) (Joint stereo / Intensity Stereo + MS Stereo)

Отчёт DVDInfo/MediaInfo/BDInfo
General
ID : 3226 (0xC9A)
Complete name : E:\Sidsel Endresen and Stian Westerhus - Live at Porgy & Bess club 2013\Sidsel Endresen and Stian Westerhus - Live at Porgy & Bess club 2013.ts
Format : MPEG-TS
File size : 1.81 GiB
Duration : 56mn 22s
Overall bit rate : 4 595 Kbps

Video
ID : 1601 (0x641)
Menu ID : 5606 (0x15E6)
Format : AVC
Format/Info : Advanced Video Codec
Format profile : Main@L4.0
Format settings, CABAC : Yes
Format settings, ReFrames : 4 frames
Format settings, GOP : M=3, N=30
Codec ID : 27
Duration : 56mn 21s
Bit rate : 4 110 Kbps
Width : 1 920 pixels
Height : 1 080 pixels
Display aspect ratio : 16:9
Frame rate : 25.000 fps
Standard : Component
Color space : YUV
Chroma subsampling : 4:2:0
Bit depth : 8 bits
Scan type : Interlaced
Scan order : Top Field First
Bits/(Pixel*Frame) : 0.079
Stream size : 1.62 GiB (89%)
Color primaries : BT.709-5, BT.1361, IEC 61966-2-4, SMPTE RP177
Transfer characteristics : BT.709-5, BT.1361
Matrix coefficients : BT.709-5, BT.1361, IEC 61966-2-4 709, SMPTE RP177

Audio
ID : 1602 (0x642)
Menu ID : 5606 (0x15E6)
Format : MPEG Audio
Format version : Version 1
Format profile : Layer 2
Mode : Joint stereo
Mode extension : Intensity Stereo + MS Stereo
Codec ID : 3
Duration : 56mn 22s
Bit rate mode : Constant
Bit rate : 256 Kbps
Channel(s) : 2 channels
Sampling rate : 48.0 KHz
Compression mode : Lossy
Delay relative to video : -730ms
Stream size : 103 MiB (6%)

Menu
ID : 1600 (0x640)
Menu ID : 5606 (0x15E6)
Duration : 56mn 22s
List : 1601 (0x641) (AVC) / 1602 (0x642) (MPEG Audio)
Any questions - support@pro-jazz.com. Есть вопросы - support@pro-jazz.com
335
Нет комментариев. Ваш будет первым!