Поиск

2013 Trombone Shorty - New Orleans Jazz and Heritage Festival [HDTV 1080i]

2013 Trombone Shorty - New Orleans Jazz and Heritage Festival [HDTV 1080i]
Треклист:

01. Liar Liar
02. Suburbia
03. Mrs. Orleans
04. On Your Way Down
05. For True
06. Backatown
07. Encore Replay
08. Hurricane Season
09. Brain Stew
10. Craziest Things
11. St. James Infirmary
12. If You Go To New Orleans
13. Something Beautiful
14. Do It To Me

Описание:

Продолжительность: 01:36:47
Год выпуска: 2013-05-05

Качество: HDTVRip 1080i
Контейнер: MKV
Видео кодек: H.264
Аудио кодек: AC3
Видео: MPEG4 Video (H264) 1920x1080 29.97fps 8302 Kbps
Аудио: Dolby AC3 48000Hz 6ch

Отчёт DVDInfo/MediaInfo/BDInfo
General
Unique ID : 223904120233213727823179430039158973436 (0xA8725D6F84A87D3697F31859F9F6E3FC)
Complete name : E:\Trombone Shorty - New Orleans Jazz and Heritage Festival - 2013-05-05 - HDTV.mkv
Format : Matroska
Format version : Version 2
File size : 5.99 GiB
Duration : 1h 36mn
Overall bit rate : 8 863 Kbps
Encoded date : UTC 2013-06-11 09:37:47
Writing application : mkvmerge v6.2.0 ('Promised Land') built on Apr 28 2013 12:22:01
Writing library : libebml v1.3.0 + libmatroska v1.4.0

Video
ID : 1
Format : AVC
Format/Info : Advanced Video Codec
Format profile : High@L4.0
Format settings, CABAC : Yes
Format settings, ReFrames : 4 frames
Codec ID : V_MPEG4/ISO/AVC
Duration : 1h 36mn
Bit rate : 8 302 Kbps
Width : 1 920 pixels
Height : 1 080 pixels
Display aspect ratio : 16:9
Frame rate mode : Constant
Frame rate : 29.970 fps
Standard : Component
Color space : YUV
Chroma subsampling : 4:2:0
Bit depth : 8 bits
Scan type : MBAFF
Bits/(Pixel*Frame) : 0.134
Stream size : 5.61 GiB (94%)
Default : Yes
Forced : No
Color primaries : BT.709
Transfer characteristics : BT.709
Matrix coefficients : BT.709

Audio
ID : 2
Format : AC-3
Format/Info : Audio Coding 3
Mode extension : CM (complete main)
Format settings, Endianness : Big
Codec ID : A_AC3
Duration : 1h 36mn
Bit rate mode : Constant
Bit rate : 384 Kbps
Channel(s) : 6 channels
Channel positions : Front: L C R, Side: L R, LFE
Sampling rate : 48.0 KHz
Bit depth : 16 bits
Compression mode : Lossy
Stream size : 266 MiB (4%)
Default : Yes
Forced : No
Скриншоты видео
2013 Trombone Shorty - New Orleans Jazz and Heritage Festival [HDTV 1080i] 02013 Trombone Shorty - New Orleans Jazz and Heritage Festival [HDTV 1080i] 12013 Trombone Shorty - New Orleans Jazz and Heritage Festival [HDTV 1080i] 22013 Trombone Shorty - New Orleans Jazz and Heritage Festival [HDTV 1080i] 32013 Trombone Shorty - New Orleans Jazz and Heritage Festival [HDTV 1080i] 42013 Trombone Shorty - New Orleans Jazz and Heritage Festival [HDTV 1080i] 52013 Trombone Shorty - New Orleans Jazz and Heritage Festival [HDTV 1080i] 62013 Trombone Shorty - New Orleans Jazz and Heritage Festival [HDTV 1080i] 72013 Trombone Shorty - New Orleans Jazz and Heritage Festival [HDTV 1080i] 82013 Trombone Shorty - New Orleans Jazz and Heritage Festival [HDTV 1080i] 92013 Trombone Shorty - New Orleans Jazz and Heritage Festival [HDTV 1080i] 102013 Trombone Shorty - New Orleans Jazz and Heritage Festival [HDTV 1080i] 112013 Trombone Shorty - New Orleans Jazz and Heritage Festival [HDTV 1080i] 122013 Trombone Shorty - New Orleans Jazz and Heritage Festival [HDTV 1080i] 132013 Trombone Shorty - New Orleans Jazz and Heritage Festival [HDTV 1080i] 14
Download available for power users only.
504
Нет комментариев. Ваш будет первым!