Поиск

2011 John Scofield Quartet feat. Mulgrew Miller - Jazz in Marciac [HDTV 1080i]

2011 John Scofield Quartet feat. Mulgrew Miller - Jazz in Marciac [HDTV 1080i]
Состав:
  • John Scofield - guitar
  • Mulgrew Miller - piano
  • Scott Colley - bass
  • Bill Stewart - drums

30 Juillet, 2011 / Marciac, Gers - France

Огромная Благодарность уважаемому greggr – за предоставленный материал ...
Спасибо большое !!!

Описание:

Продолжительность: 00:50:32
Год выпуска: 2011

Качество: HDTV 1080i
Контейнер: TS
Видео кодек: H.264
Аудио кодек: MPEG
Видео: 6 317 Kbps, 1920*1080 (16:9), at 25.000 fps, AVC (Component) (Main@L4.0) (CABAC / 4 Ref Frames)
Аудио: 256 Kbps, 48.0 KHz, 2 channels, MPEG Audio (Version 1) (Layer 2) (Joint stereo / Intensity Stereo + MS Stereo)

 

Отчёт DVDInfo/MediaInfo/BDInfo
General
ID : 3226 (0xC9A)
Complete name : E:\John Scofield Quartet feat. Mulgrew Miller - Live at Jazz in Marciac 2011\John Scofield Quartet feat. Mulgrew Miller - Live at Jazz in Marciac 2011.ts
Format : MPEG-TS
File size : 2.44 GiB
Duration : 50mn 32s
Overall bit rate : 6 917 Kbps

Video
ID : 1601 (0x641)
Menu ID : 5606 (0x15E6)
Format : AVC
Format/Info : Advanced Video Codec
Format profile : Main@L4.0
Format settings, CABAC : Yes
Format settings, ReFrames : 4 frames
Codec ID : 27
Duration : 50mn 32s
Bit rate : 6 317 Kbps
Width : 1 920 pixels
Height : 1 080 pixels
Display aspect ratio : 16:9
Frame rate : 25.000 fps
Standard : Component
Color space : YUV
Chroma subsampling : 4:2:0
Bit depth : 8 bits
Scan type : Interlaced
Scan order : Top Field First
Bits/(Pixel*Frame) : 0.122
Stream size : 2.23 GiB (91%)
Color primaries : BT.709-5, BT.1361, IEC 61966-2-4, SMPTE RP177
Transfer characteristics : BT.709-5, BT.1361
Matrix coefficients : BT.709-5, BT.1361, IEC 61966-2-4 709, SMPTE RP177

Audio
ID : 1602 (0x642)
Menu ID : 5606 (0x15E6)
Format : MPEG Audio
Format version : Version 1
Format profile : Layer 2
Mode : Joint stereo
Mode extension : Intensity Stereo + MS Stereo
Codec ID : 3
Duration : 50mn 32s
Bit rate mode : Constant
Bit rate : 256 Kbps
Channel(s) : 2 channels
Sampling rate : 48.0 KHz
Compression mode : Lossy
Delay relative to video : -631ms
Stream size : 92.6 MiB (4%)

Menu
ID : 1600 (0x640)
Menu ID : 5606 (0x15E6)
Duration : 50mn 32s
List : 1601 (0x641) (AVC) / 1602 (0x642) (MPEG Audio)
Скриншоты видео
2011 John Scofield Quartet feat. Mulgrew Miller - Jazz in Marciac [HDTV 1080i] 02011 John Scofield Quartet feat. Mulgrew Miller - Jazz in Marciac [HDTV 1080i] 12011 John Scofield Quartet feat. Mulgrew Miller - Jazz in Marciac [HDTV 1080i] 22011 John Scofield Quartet feat. Mulgrew Miller - Jazz in Marciac [HDTV 1080i] 32011 John Scofield Quartet feat. Mulgrew Miller - Jazz in Marciac [HDTV 1080i] 42011 John Scofield Quartet feat. Mulgrew Miller - Jazz in Marciac [HDTV 1080i] 52011 John Scofield Quartet feat. Mulgrew Miller - Jazz in Marciac [HDTV 1080i] 62011 John Scofield Quartet feat. Mulgrew Miller - Jazz in Marciac [HDTV 1080i] 72011 John Scofield Quartet feat. Mulgrew Miller - Jazz in Marciac [HDTV 1080i] 82011 John Scofield Quartet feat. Mulgrew Miller - Jazz in Marciac [HDTV 1080i] 92011 John Scofield Quartet feat. Mulgrew Miller - Jazz in Marciac [HDTV 1080i] 10
Download available for power users only.
668
Нет комментариев. Ваш будет первым!