Вы используете незарегистрированную версию компонента "Вкладки"!

Поиск

2012 Spectrum Road - At Montreux Jazz Festival [HDTV 720p]

2012 Spectrum Road - At Montreux Jazz Festival [HDTV 720p]
Время звучания:
00:45:51
Состав:
  • John Medeski - organ, keyboards
  • Jack Bruce - bass, vocals
  • Cindy Blackman-Santana - drums, vocals
  • Vernon Reid - guitar

very special guest

Описание:

Качество: HDTV 720p
Контейнер: TS
Видео кодек: H.264
Аудио кодек: AC3
Видео: 10.0 Mbps, 1280*720 (16:9), at 50.000 fps, AVC (Component) (High@L4.0) (CABAC / 3 Ref Frames)
Аудио: English, 448 Kbps, 48.0 KHz, 16 bits, 6 channels, AC-3

Отчёт DVDInfo/MediaInfo/BDInfo
General
ID : 1 (0x1)
Complete name : E:\Spectrum Road - Jazz Festival Montreux 2012 (2013) HDTV 720p\Spectrum Road - Jazz Festival Montreux 2012.ts
Format : MPEG-TS
File size : 3.52 GiB
Duration : 45mn 51s
Overall bit rate mode : Variable
Overall bit rate : 11.0 Mbps
Maximum Overall bit rate : 35.5 Mbps

Video
ID : 4113 (0x1011)
Menu ID : 1 (0x1)
Format : AVC
Format/Info : Advanced Video Codec
Format profile : High@L4.0
Format settings, CABAC : Yes
Format settings, ReFrames : 3 frames
Format settings, GOP : M=2, N=24
Codec ID : 27
Duration : 45mn 51s
Bit rate mode : Variable
Bit rate : 10.0 Mbps
Maximum bit rate : 40.0 Mbps
Width : 1 280 pixels
Height : 720 pixels
Display aspect ratio : 16:9
Frame rate : 50.000 fps
Standard : Component
Color space : YUV
Chroma subsampling : 4:2:0
Bit depth : 8 bits
Scan type : Progressive
Bits/(Pixel*Frame) : 0.217
Stream size : 3.21 GiB (91%)
Color primaries : BT.709-5, BT.1361, IEC 61966-2-4, SMPTE RP177
Transfer characteristics : BT.709-5, BT.1361
Matrix coefficients : BT.709-5, BT.1361, IEC 61966-2-4 709, SMPTE RP177

Audio
ID : 4352 (0x1100)
Menu ID : 1 (0x1)
Format : AC-3
Format/Info : Audio Coding 3
Mode extension : CM (complete main)
Codec ID : 129
Duration : 45mn 51s
Bit rate mode : Constant
Bit rate : 448 Kbps
Channel(s) : 6 channels
Channel positions : Front: L C R, Side: L R, LFE
Sampling rate : 48.0 KHz
Bit depth : 16 bits
Compression mode : Lossy
Delay relative to video : 20ms
Stream size : 147 MiB (4%)
Language : English
Any questions - support@pro-jazz.com. Есть вопросы - support@pro-jazz.com
286
18:12