Вы используете незарегистрированную версию компонента "Вкладки"!

Поиск

2015 Arto Lindsay - Live At New Morning [HDTV 1080i]

2015 Arto Lindsay - Live At New Morning [HDTV 1080i]
Дата проведения концерта (записи):
05 ноября 2014
Место проведения:
New Morning Club, Paris, France
Главы (разбивка по трекам):
нет
Состав:
  • Arto Lindsay (Guitare, Voix)
  • Kassa Overall (Batterie)
  • Melvin Gibbs (Basse)
  • Paul Wilson (Claviers)
  • Marivaldo Paim (Percussions)
Видео:
AVC,1920*1080i (16:9), 4843kbps, 25fps
Аудио#1:
AAC LC, 256kbps, 48kHz, 2ch
Описание:

Со своим необычным подходом Линдсей в своём творчестве устанавливает связь между Брайаном Ино и Антонио Карлосом Жобимом, между Каэтано Велозу и Джоном Зорном, прогуливаясь по улицам Рио-де-Жанейро (там, где он живет), Нью-Йорка, Токио или Неаполя. Приятный и вежливый взгляд под его маленькими круглыми очками. Загадочный персонаж, шутливый и редкий, он предлагает нам двойной альбом, две грани необычной личности. С одной стороны поп-жемчуг последних лет, с другой — наглость в живом архи грубом и экспериментальном стиле.
Его ДНК несёт столько панковских клеток, сколько и тропических ферментов. Американец Арто Линдсей, культовый музыкант нью-йоркской альтернативной сцены, а также продюсер на периферии, хорошо знает Бразилию, где его сотрудничество в 1989 году с Каэтано Велозо в «Эстранджейро» открыло ему двери признания со стороны южноамериканских сверстников.

Изысканность и минимализм являются его подписью, а эта творческая нить находится в тонком балансе между нью-йоркским звуком и бразильской музыкой, которая лежит в основе его дискографии. Он демонстрирует собственный способ укрощения излишков самбы, смещая акценты в двуязычном электро-артистическом поп исполнении с аранжировками, полными ярких деталей, с его способностью встряхнуть вялость босса-новы.

Одной из черт его музыки является беспечность, не говоря уже об экспериментальном аспекте его связей с андеграундной сценой в центре города, где его друзьями являются Джон Зорн, Марк Рибо или Джон Лурье, с которыми Арто Линдсей основал Lounge Lizards в конце 70-х годов. В то же время, получившая название от Брайана Ино, его группа DNA является пионером No Wave. (D.Quest / Libération)

Отчёт DVDInfo/MediaInfo/BDInfo
Общее
Полное имя : \\2015 Arto Linsay - Live At New Morning [HDTV 1080i].mp4
Формат : MPEG-4
Профиль формата : Base Media
Идентификатор кодека : isom (isom/iso2/avc1/mp41)
Размер файла : 2,00 Гбайт
Продолжительность : 56 м. 1 с.
Режим общего битрейта : Переменный
Общий поток : 5110 Кбит/сек
Программа кодирования : VideoReDo (Lavf57.71.100)

Видео
Идентификатор : 1
Формат : AVC
Формат/Информация : Advanced Video Codec
Профиль формата : High@L4
Настройки формата : CABAC / 4 Ref Frames
Параметр CABAC формата : Да
Параметр RefFrames формата : 4 кадра
Параметр GOP формата : M=4, N=28
Идентификатор кодека : avc1
Идентификатор кодека/Информация : Advanced Video Coding
Продолжительность : 56 м. 1 с.
Битрейт : 4843 Кбит/сек
Ширина : 1920 пикселей
Высота : 1080 пикселей
Соотношение сторон : 16:9
Режим частоты кадров : Постоянный
Частота кадров : 25,000 кадров/сек
Стандарт вещания : Component
Цветовое пространство : YUV
Субдискретизация насыщенности : 4:2:0
Битовая глубина : 8 бит
Тип развёртки : Чересстрочная
Метод сохранения типа развёртки : Раздельные поля
Порядок развёртки : Верхнее поле первое
Бит/(Пиксели*Кадры) : 0.093
Размер потока : 1,90 Гбайт (95%)
Цветовой диапазон : Limited
Основные цвета : BT.709
Характеристики трансфера : BT.709
Коэффициенты матрицы : BT.709
Codec configuration box : avcC

Аудио
Идентификатор : 2
Формат : AAC LC
Формат/Информация : Advanced Audio Codec Low Complexity
Идентификатор кодека : mp4a-40-2
Продолжительность : 56 м. 1 с.
Duration_LastFrame : -21 мс.
Вид битрейта : Переменный
Битрейт : 253 Кбит/сек
Максимальный битрейт : 256 Кбит/сек
Каналы : 2 канала
ChannelLayout : L R
Частота : 48,0 КГц
Частота кадров : 46,875 кадров/сек (1024 SPF)
Метод сжатия : С потерями
Размер потока : 102 Мбайт (5%)
Язык : Russian
Default : Да
AlternateGroup/String : 1
Any questions - support@pro-jazz.com. Есть вопросы - support@pro-jazz.com
427
Нет комментариев. Ваш будет первым!