Поиск

2010 Bireli Lagrene Trio - Live In Jazz In Marciac [HDTV 1080i]

2010 Bireli Lagrene Trio - Live In Jazz In Marciac [HDTV 1080i]
Место проведения:
Marciac, France
Время звучания:
00:52:20
Главы (разбивка по трекам):
нет
Состав:
  • Biréli Lagrène - guitar
  • Frank Wolf - saxophone
  • Jürgen Attig - bass
Видео:
AVC,1920*1080i (16:9), 9372kbps, 25fps
Аудио#1:
MPEG2, 256kbps, 48kHz, 2ch
Отчёт DVDInfo/MediaInfo/BDInfo
Общее
Уникальный идентификатор : 130887027205735231359901937841935409695 (0x6277ECAC3614DDEDFD03B3ADACA6E21F)
Полное имя : \\NASF8F4EB\Videos\HD Video\Bireli Lagrene\2010 Bireli Lagrene Trio - Live In Jazz In Marciac [HDTV 1080i]\2010 Bireli Lagrene Trio - Live In Jazz In Marciac [HDTV 1080i].mkv
Формат : Matroska
Версия формата : Version 2
Размер файла : 3,59 Гбайт
Продолжительность : 52 м. 20 с.
Общий поток : 9823 Кбит/сек
Программа кодирования : Lavf54.63.104
Библиотека кодирования : Lavf54.63.104

Видео
Идентификатор : 1
Формат : AVC
Формат/Информация : Advanced Video Codec
Профиль формата : Main@L4
Настройки формата : CABAC / 3 Ref Frames
Параметр CABAC формата : Да
Параметр RefFrames формата : 3 кадра
Параметр GOP формата : M=4, N=32
Идентификатор кодека : V_MPEG4/ISO/AVC
Продолжительность : 52 м. 20 с.
Битрейт : 9372 Кбит/сек
Ширина : 1920 пикселей
Высота : 1080 пикселей
Соотношение сторон : 16:9
Режим частоты кадров : Постоянный
Частота кадров : 25,000 кадров/сек
Стандарт вещания : Component
Цветовое пространство : YUV
Субдискретизация насыщенности : 4:2:0
Битовая глубина : 8 бит
Тип развёртки : Чересстрочная
Метод сохранения типа развёртки : Раздельные поля
Порядок развёртки : Верхнее поле первое
Бит/(Пиксели*Кадры) : 0.181
Размер потока : 3,43 Гбайт (95%)
Default : Нет
Forced : Нет
Цветовой диапазон : Limited
Основные цвета : BT.709
Характеристики трансфера : BT.709
Коэффициенты матрицы : BT.709

Аудио
Идентификатор : 2
Формат : MPEG Audio
Версия формата : Version 1
Профиль формата : Layer 2
Идентификатор кодека : A_MPEG/L2
Идентификатор кодека/Подсказка : MP2
Продолжительность : 52 м. 20 с.
Вид битрейта : Постоянный
Битрейт : 256 Кбит/сек
Каналы : 2 канала
Частота : 48,0 КГц
Метод сжатия : С потерями
Размер потока : 95,8 Мбайт (3%)
Язык : French
Default : Да
Forced : Нет
Скриншоты видео
2010 Bireli Lagrene Trio - Live In Jazz In Marciac [HDTV 1080i] 02010 Bireli Lagrene Trio - Live In Jazz In Marciac [HDTV 1080i] 12010 Bireli Lagrene Trio - Live In Jazz In Marciac [HDTV 1080i] 22010 Bireli Lagrene Trio - Live In Jazz In Marciac [HDTV 1080i] 3
Download available for power users only.
557
Нет комментариев. Ваш будет первым!