Вы используете незарегистрированную версию компонента "Вкладки"!

Поиск

2010 [em] - Jazz Baltica [HDTV 720p]

2010 [em] - Jazz Baltica [HDTV 720p]
Состав:
  • Michael Wollny - piano
  • Eva Kruse - bass
  • Eric Schaefer - drums
Описание:

Продолжительность: 00:50:16
Год выпуска: 2010

Качество: HDTV 720p
Контейнер: MKV
Видео кодек: H.264
Аудио кодек: AC3
Видео: 12.7 Mbps, 1280*720 (16:9), at 50.000 fps, AVC (High@L4.0) (CABAC / 6 Ref Frames)
Аудио: German, 448 Kbps, 48.0 KHz, 16 bits, 2 channels, AC-3
Источник: Digital Satellite > SkyStar HD2 (TechniSat) > ts > raw data to HDD > Cypheros TS-Doctor > VideoReDo TVSuite v4 (cut) > tsMuxerGUI > mkvmegre GUI > mkv

Отчёт DVDInfo/MediaInfo/BDInfo
General
Unique ID : 215652345967302053201766560012377146188 (0xA23D218DA5125C1DA1E906471F66434C)
Complete name : K:\rutracker.org_HD\3sat HD_[em] - jazz baltica 2010.mkv
Format : Matroska
Format version : Version 4 / Version 2
File size : 4.70 GiB
Duration : 50mn 16s
Overall bit rate mode : Variable
Overall bit rate : 13.4 Mbps
Encoded date : UTC 2013-04-30 09:15:43
Writing application : mkvmerge v6.1.0 ('Old Devil') built on Mar 2 2013 14:32:37
Writing library : libebml v1.3.0 + libmatroska v1.4.0

Video
ID : 1
Format : AVC
Format/Info : Advanced Video Codec
Format profile : High@L4.0
Format settings, CABAC : Yes
Format settings, ReFrames : 6 frames
Codec ID : V_MPEG4/ISO/AVC
Duration : 50mn 16s
Bit rate mode : Variable
Bit rate : 12.7 Mbps
Maximum bit rate : 40.0 Mbps
Width : 1 280 pixels
Height : 720 pixels
Display aspect ratio : 16:9
Frame rate : 50.000 fps
Color space : YUV
Chroma subsampling : 4:2:0
Bit depth : 8 bits
Scan type : Progressive
Bits/(Pixel*Frame) : 0.275
Stream size : 4.45 GiB (95%)
Default : Yes
Forced : No
Color primaries : BT.709-5, BT.1361, IEC 61966-2-4, SMPTE RP177
Transfer characteristics : BT.709-5, BT.1361
Matrix coefficients : BT.709-5, BT.1361, IEC 61966-2-4 709, SMPTE RP177

Audio
ID : 2
Format : AC-3
Format/Info : Audio Coding 3
Mode extension : CM (complete main)
Codec ID : A_AC3
Duration : 50mn 16s
Bit rate mode : Constant
Bit rate : 448 Kbps
Channel(s) : 2 channels
Channel positions : Front: L R
Sampling rate : 48.0 KHz
Bit depth : 16 bits
Compression mode : Lossy
Stream size : 161 MiB (3%)
Language : German
Default : Yes
Forced : No
Any questions - support@pro-jazz.com. Есть вопросы - support@pro-jazz.com
252
Нет комментариев. Ваш будет первым!