Вы используете незарегистрированную версию компонента "Вкладки"!

Поиск

2012 Bojan Z. & Baptiste Trotignon - Jazz a la Villette [HDTV 1080i]

2012 Bojan Z. & Baptiste Trotignon - Jazz a la Villette [HDTV 1080i]
Состав:
Описание:

Продолжительность: 01:15:00
Год выпуска: 2012

Огромная Благодарность – greggr – за предоставленный материал ...
Спасибо большое !!!
Качество: HDTV 1080i
Контейнер: MKV
Видео кодек: H.264
Аудио кодек: MPEG
Видео: 4 210 Kbps, 1920*1080 (16:9), at 25.000 fps, AVC (Component) (Main@L4.0) (CABAC / 4 Ref Frames)
Аудио: 256 Kbps, 48.0 KHz, 2 channels, MPEG Audio (MP2) (Version 1) (Layer 2) (Joint stereo / Intensity Stereo + MS Stereo)
Источник: ts > tsMuxerGUI > mkvmegre GUI > mkv

Отчёт DVDInfo/MediaInfo/BDInfo
General
Unique ID : 214776456121489384347110808429617631012 (0xA19470D989DE0F3792D2BFA403064F24)
Complete name : K:\rutracker.org_mezzo live HD\mezzo live HD_Bojan Z. & Baptiste Trotignon - Jazz a la Villette 2012.mkv
Format : Matroska
Format version : Version 4 / Version 2
File size : 2.40 GiB
Duration : 1h 15mn
Overall bit rate mode : Variable
Overall bit rate : 4 557 Kbps
Encoded date : UTC 2013-04-26 09:37:06
Writing application : mkvmerge v6.1.0 ('Old Devil') built on Mar 2 2013 14:32:37
Writing library : libebml v1.3.0 + libmatroska v1.4.0

Video
ID : 1
Format : AVC
Format/Info : Advanced Video Codec
Format profile : Main@L4.0
Format settings, CABAC : Yes
Format settings, ReFrames : 4 frames
Format settings, GOP : M=3, N=30
Codec ID : V_MPEG4/ISO/AVC
Duration : 1h 15mn
Bit rate mode : Variable
Bit rate : 4 210 Kbps
Maximum bit rate : 40.0 Mbps
Width : 1 920 pixels
Height : 1 080 pixels
Display aspect ratio : 16:9
Frame rate mode : Variable
Frame rate : 50.000 fps
Original frame rate : 25.000 fps
Standard : Component
Color space : YUV
Chroma subsampling : 4:2:0
Bit depth : 8 bits
Scan type : Interlaced
Scan order : Top Field First
Bits/(Pixel*Frame) : 0.041
Stream size : 2.21 GiB (92%)
Default : Yes
Forced : No
Color primaries : BT.709-5, BT.1361, IEC 61966-2-4, SMPTE RP177
Transfer characteristics : BT.709-5, BT.1361
Matrix coefficients : BT.709-5, BT.1361, IEC 61966-2-4 709, SMPTE RP177

Audio
ID : 2
Format : MPEG Audio
Format version : Version 1
Format profile : Layer 2
Codec ID : A_MPEG/L2
Codec ID/Hint : MP2
Duration : 1h 15mn
Bit rate mode : Constant
Bit rate : 256 Kbps
Channel(s) : 2 channels
Sampling rate : 48.0 KHz
Compression mode : Lossy
Delay relative to video : -25ms
Stream size : 138 MiB (6%)
Default : Yes
Forced : No
Any questions - support@pro-jazz.com. Есть вопросы - support@pro-jazz.com
225
Нет комментариев. Ваш будет первым!