Вы используете незарегистрированную версию компонента "Вкладки"!

Поиск

1991 Miles Davis with Quincy Jones & the Gil Evans Orchestra - Live at Montreux (2013) [Blu-ray]

1991 Miles Davis with Quincy Jones & the Gil Evans Orchestra - Live at Montreux (2013) [Blu-ray]
Дата проведения концерта (записи):
8 июля 1991
Место проведения:
Montreux Jazz Festival
Дата издания диска:
18 марта 2013
Время звучания:
01:00:09+00:46:19+00
Состав:
Описание:

Качество: Blu-ray
Контейнер: BDMV
Видео кодек: MPEG4
Аудио кодек: DTS, PCM
Видео 1: MPEG4 Video (H264) 1920x1080 29.97fps 36.5Mbps
Видео 2(бонус): MPEG2 Video 720x480 (4:3)(16:9) 29.97fps 6406-9800kbps
Аудио 1: English DTS-HD MA 5.1 (48 kHz / 2951 kbps / 16-bit)
Аудио 2: English LPCM 2.0 (48 kHz / 1536 kbps / 16-bit)

Отчёт DVDInfo/MediaInfo/BDInfo
Disc Title: Miles Davis with Quincy Jones & the Gil Evans Orchestra Live at Montreux (1991) Blu-ray
Disc Size: 21 687 920 928 bytes
Protection: AACS
BD-Java: No
BDInfo: 0.5.6

Notes:

BDINFO HOME:
Cinema Squid
http://www.cinemasquid.com/blu-ray/tools/bdinfo

INCLUDES FORUMS REPORT FOR:
AVS Forum Blu-ray Audio and Video Specifications Thread
http://www.avsforum.com/avs-vb/showthread.php?t=1155731

********************
PLAYLIST: 00002.MPLS
********************

<--- BEGIN FORUMS PASTE --->
Код:
Total Video
Title Codec Length Movie Size Disc Size Bitrate Bitrate Main Audio Track Secondary Audio Track
----- ------ ------- -------------- -------------- ------- ------- ------------------ ---------------------
00002.MPLS AVC 1:00:44 16 607 913 984 21 687 920 928 36,46 29,92 LPCM 2.0 1536Kbps (48kHz/16-bit) DTS-HD Master 5.1 2951Kbps (48kHz/16-bit)
Код:
DISC INFO:

Disc Title: Miles Davis with Quincy Jones & the Gil Evans Orchestra Live at Montreux (1991) Blu-ray
Disc Size: 21 687 920 928 bytes
Protection: AACS
BD-Java: No
BDInfo: 0.5.6

PLAYLIST REPORT:

Name: 00002.MPLS
Length: 1:00:44 (h:m:s)
Size: 16 607 913 984 bytes
Total Bitrate: 36,46 Mbps

VIDEO:

Codec Bitrate Description
----- ------- -----------
MPEG-4 AVC Video 29919 kbps 1080i / 29,970 fps / 16:9 / High Profile 4.1

AUDIO:

Codec Language Bitrate Description
----- -------- ------- -----------
LPCM Audio English 1536 kbps 2.0 / 48 kHz / 1536 kbps / 16-bit
DTS-HD Master Audio English 2951 kbps 5.1 / 48 kHz / 2951 kbps / 16-bit (DTS Core: 5.1 / 48 kHz / 1509 kbps / 16-bit)

FILES:

Name Time In Length Size Total Bitrate
---- ------- ------ ---- -------------
00002.M2TS 0:00:00.000 1:00:44.073 16 607 913 984 36 460

CHAPTERS:

Number Time In Length Avg Video Rate Max 1-Sec Rate Max 1-Sec Time Max 5-Sec Rate Max 5-Sec Time Max 10Sec Rate Max 10Sec Time Avg Frame Size Max Frame Size Max Frame Time
------ ------- ------ -------------- -------------- -------------- -------------- -------------- -------------- -------------- -------------- -------------- --------------
1 0:00:00.000 0:04:30.770 28 697 kbps 36 907 kbps 00:04:18.858 35 056 kbps 00:03:17.330 34 495 kbps 00:03:12.225 119 677 bytes 350 357 bytes 00:03:53.833
2 0:04:30.770 0:03:55.235 31 132 kbps 36 894 kbps 00:08:09.522 35 494 kbps 00:08:07.186 34 351 kbps 00:08:06.385 129 845 bytes 364 182 bytes 00:08:01.614
3 0:08:26.005 0:03:38.217 30 103 kbps 36 141 kbps 00:11:45.337 33 899 kbps 00:10:33.199 33 096 kbps 00:09:12.385 125 554 bytes 340 294 bytes 00:10:23.689
4 0:12:04.223 0:04:00.240 29 640 kbps 39 792 kbps 00:15:00.065 35 055 kbps 00:14:38.711 33 622 kbps 00:14:59.298 123 623 bytes 369 673 bytes 00:15:27.393
5 0:16:04.463 0:04:12.251 28 333 kbps 36 175 kbps 00:16:36.862 34 076 kbps 00:20:11.476 33 109 kbps 00:20:06.705 118 171 bytes 360 185 bytes 00:18:47.593
6 0:20:16.715 0:03:39.185 30 463 kbps 37 338 kbps 00:21:46.004 34 291 kbps 00:22:55.006 33 701 kbps 00:22:50.202 127 055 bytes 363 141 bytes 00:22:26.211
7 0:23:55.901 0:07:28.481 30 037 kbps 38 138 kbps 00:30:04.602 35 247 kbps 00:30:03.101 34 028 kbps 00:29:58.096 125 278 bytes 358 037 bytes 00:24:06.311
8 0:31:24.382 0:04:22.262 32 055 kbps 37 372 kbps 00:34:03.808 35 316 kbps 00:34:06.310 34 487 kbps 00:34:31.536 133 694 bytes 351 082 bytes 00:31:57.448
9 0:35:46.644 0:01:50.109 32 270 kbps 37 522 kbps 00:36:42.567 35 510 kbps 00:36:42.533 34 844 kbps 00:36:42.533 134 594 bytes 375 013 bytes 00:37:11.429
10 0:37:36.754 0:03:26.906 31 288 kbps 37 211 kbps 00:37:38.489 34 446 kbps 00:40:22.486 33 939 kbps 00:37:44.228 130 497 bytes 376 002 bytes 00:39:38.776
11 0:41:03.661 0:04:21.561 30 594 kbps 42 374 kbps 00:42:34.118 35 192 kbps 00:41:21.145 33 872 kbps 00:41:19.610 127 602 bytes 373 473 bytes 00:42:11.729
12 0:45:25.222 0:01:41.034 30 364 kbps 36 621 kbps 00:45:46.009 34 732 kbps 00:45:42.806 33 469 kbps 00:45:54.618 126 645 bytes 365 772 bytes 00:45:46.977
13 0:47:06.256 0:13:37.816 28 667 kbps 41 912 kbps 00:49:13.317 37 598 kbps 00:55:24.454 35 470 kbps 00:55:23.787 119 572 bytes 378 095 bytes 00:52:54.871

STREAM DIAGNOSTICS:

File PID Type Codec Language Seconds Bitrate Bytes Packets
---- --- ---- ----- -------- -------------- -------------- ------------- -----
00002.M2TS 4113 (0x1011) 0x1B AVC 3643,974 29 920 13 628 330 189 74 130 669
00002.M2TS 4352 (0x1100) 0x80 LPCM eng (English) 3643,974 1 542 702 577 660 4 372 890
00002.M2TS 4353 (0x1101) 0x86 DTS-HD MA eng (English) 3643,974 2 951 1 344 190 100 7 873 883
<---- END FORUMS PASTE ---->

QUICK SUMMARY:

Disc Title: Miles Davis with Quincy Jones & the Gil Evans Orchestra Live at Montreux (1991) Blu-ray
Disc Size: 21 687 920 928 bytes
Protection: AACS
BD-Java: No
Playlist: 00002.MPLS
Size: 16 607 913 984 bytes
Length: 1:00:44
Total Bitrate: 36,46 Mbps
Video: MPEG-4 AVC Video / 29919 kbps / 1080i / 29,970 fps / 16:9 / High Profile 4.1
Audio: English / LPCM Audio / 2.0 / 48 kHz / 1536 kbps / 16-bit
Audio: English / DTS-HD Master Audio / 5.1 / 48 kHz / 2951 kbps / 16-bit (DTS Core: 5.1 / 48 kHz / 1509 kbps / 16-bit)

********************
PLAYLIST: 00000.MPLS
********************

<--- BEGIN FORUMS PASTE --->
Код:
Total Video
Title Codec Length Movie Size Disc Size Bitrate Bitrate Main Audio Track Secondary Audio Track
----- ------ ------- -------------- -------------- ------- ------- ------------------ ---------------------
00000.MPLS MPEG-2 0:46:19 2 873 419 776 21 687 920 928 8,27 5,99 LPCM 2.0 1536Kbps (48kHz/16-bit)
Код:
DISC INFO:

Disc Title: Miles Davis with Quincy Jones & the Gil Evans Orchestra Live at Montreux (1991) Blu-ray
Disc Size: 21 687 920 928 bytes
Protection: AACS
BD-Java: No
BDInfo: 0.5.6

PLAYLIST REPORT:

Name: 00000.MPLS
Length: 0:46:19 (h:m:s)
Size: 2 873 419 776 bytes
Total Bitrate: 8,27 Mbps

VIDEO:

Codec Bitrate Description
----- ------- -----------
MPEG-2 Video 5986 kbps 480i / 29,970 fps / 4:3

AUDIO:

Codec Language Bitrate Description
----- -------- ------- -----------
LPCM Audio English 1536 kbps 2.0 / 48 kHz / 1536 kbps / 16-bit

SUBTITLES:

Codec Language Bitrate Description
----- -------- ------- -----------
Presentation Graphics English 22,209 kbps
Presentation Graphics German 23,216 kbps
Presentation Graphics Spanish 21,993 kbps
Presentation Graphics French 18,907 kbps

FILES:

Name Time In Length Size Total Bitrate
---- ------- ------ ---- -------------
00001.M2TS 0:00:00.000 0:46:19.743 2 873 419 776 8 270

CHAPTERS:

Number Time In Length Avg Video Rate Max 1-Sec Rate Max 1-Sec Time Max 5-Sec Rate Max 5-Sec Time Max 10Sec Rate Max 10Sec Time Avg Frame Size Max Frame Size Max Frame Time
------ ------- ------ -------------- -------------- -------------- -------------- -------------- -------------- -------------- -------------- -------------- --------------
1 0:00:00.000 0:02:47.267 5 382 kbps 7 355 kbps 00:00:42.909 6 242 kbps 00:00:40.206 5 915 kbps 00:01:54.647 22 443 bytes 63 588 bytes 00:02:45.765
2 0:02:47.267 0:07:59.045 5 496 kbps 8 502 kbps 00:07:55.408 7 360 kbps 00:07:52.905 7 112 kbps 00:07:53.606 22 921 bytes 84 352 bytes 00:08:40.820
3 0:10:46.312 0:09:04.544 6 869 kbps 8 805 kbps 00:16:10.869 8 377 kbps 00:16:39.999 8 152 kbps 00:16:06.632 28 650 bytes 86 704 bytes 00:16:23.215
4 0:19:50.856 0:12:04.590 6 261 kbps 8 803 kbps 00:21:00.492 8 159 kbps 00:27:29.948 7 872 kbps 00:20:55.954 26 115 bytes 93 672 bytes 00:28:07.352
5 0:31:55.446 0:02:13.867 5 597 kbps 7 114 kbps 00:33:32.910 6 287 kbps 00:33:32.510 6 212 kbps 00:33:30.808 23 344 bytes 66 632 bytes 00:32:00.785
6 0:34:09.313 0:07:38.057 6 187 kbps 8 368 kbps 00:35:21.853 7 738 kbps 00:35:19.750 7 419 kbps 00:35:17.048 25 805 bytes 91 808 bytes 00:35:46.244
7 0:41:47.371 0:04:32.372 4 576 kbps 5 700 kbps 00:46:06.430 5 371 kbps 00:42:10.060 5 320 kbps 00:42:10.060 19 088 bytes 57 536 bytes 00:43:09.286

STREAM DIAGNOSTICS:

File PID Type Codec Language Seconds Bitrate Bytes Packets
---- --- ---- ----- -------- -------------- -------------- ------------- -----
00001.M2TS 4113 (0x1011) 0x02 MPEG-2 2779,677 5 986 2 079 999 092 11 353 154
00001.M2TS 4352 (0x1100) 0x80 LPCM eng (English) 2779,677 1 542 535 934 836 3 335 694
00001.M2TS 4608 (0x1200) 0x90 PGS eng (English) 2779,677 22 7 716 891 47 064
00001.M2TS 4609 (0x1201) 0x90 PGS deu (German) 2779,677 23 8 066 965 49 226
00001.M2TS 4610 (0x1202) 0x90 PGS spa (Spanish) 2779,677 22 7 641 862 46 925
00001.M2TS 4611 (0x1203) 0x90 PGS fra (French) 2779,677 19 6 569 719 40 523
<---- END FORUMS PASTE ---->

QUICK SUMMARY:

Disc Title: Miles Davis with Quincy Jones & the Gil Evans Orchestra Live at Montreux (1991) Blu-ray
Disc Size: 21 687 920 928 bytes
Protection: AACS
BD-Java: No
Playlist: 00000.MPLS
Size: 2 873 419 776 bytes
Length: 0:46:19
Total Bitrate: 8,27 Mbps
Video: MPEG-2 Video / 5986 kbps / 480i / 29,970 fps / 4:3
Audio: English / LPCM Audio / 2.0 / 48 kHz / 1536 kbps / 16-bit
Subtitle: English / 22,209 kbps
Subtitle: German / 23,216 kbps
Subtitle: Spanish / 21,993 kbps
Subtitle: French / 18,907 kbps

********************
PLAYLIST: 00005.MPLS
********************

<--- BEGIN FORUMS PASTE --->
Код:
Total Video
Title Codec Length Movie Size Disc Size Bitrate Bitrate Main Audio Track Secondary Audio Track
----- ------ ------- -------------- -------------- ------- ------- ------------------ ---------------------
00005.MPLS MPEG-2 0:27:04 1 682 257 920 21 687 920 928 8,29 5,99 LPCM 2.0 1536Kbps (48kHz/16-bit)
Код:
DISC INFO:

Disc Title: Miles Davis with Quincy Jones & the Gil Evans Orchestra Live at Montreux (1991) Blu-ray
Disc Size: 21 687 920 928 bytes
Protection: AACS
BD-Java: No
BDInfo: 0.5.6

PLAYLIST REPORT:

Name: 00005.MPLS
Length: 0:27:04 (h:m:s)
Size: 1 682 257 920 bytes
Total Bitrate: 8,29 Mbps

VIDEO:

Codec Bitrate Description
----- ------- -----------
MPEG-2 Video 5987 kbps 480i / 29,970 fps / 16:9

AUDIO:

Codec Language Bitrate Description
----- -------- ------- -----------
LPCM Audio English 1536 kbps 2.0 / 48 kHz / 1536 kbps / 16-bit

SUBTITLES:

Codec Language Bitrate Description
----- -------- ------- -----------
Presentation Graphics English 25,311 kbps
Presentation Graphics German 26,597 kbps
Presentation Graphics Spanish 23,754 kbps
Presentation Graphics French 24,751 kbps

FILES:

Name Time In Length Size Total Bitrate
---- ------- ------ ---- -------------
00007.M2TS 0:00:00.000 0:27:04.089 1 682 257 920 8 287

CHAPTERS:

Number Time In Length Avg Video Rate Max 1-Sec Rate Max 1-Sec Time Max 5-Sec Rate Max 5-Sec Time Max 10Sec Rate Max 10Sec Time Avg Frame Size Max Frame Size Max Frame Time
------ ------- ------ -------------- -------------- -------------- -------------- -------------- -------------- -------------- -------------- -------------- --------------
1 0:00:00.000 0:27:04.089 5 987 kbps 8 557 kbps 00:09:48.387 7 490 kbps 00:24:46.284 7 334 kbps 00:20:14.780 24 970 bytes 89 496 bytes 00:22:04.156

STREAM DIAGNOSTICS:

File PID Type Codec Language Seconds Bitrate Bytes Packets
---- --- ---- ----- -------- -------------- -------------- ------------- -----
00007.M2TS 4113 (0x1011) 0x02 MPEG-2 1624,022 5 987 1 215 376 300 6 633 804
00007.M2TS 4352 (0x1100) 0x80 LPCM eng (English) 1624,022 1 542 313 118 768 1 948 872
00007.M2TS 4608 (0x1200) 0x90 PGS eng (English) 1624,022 25 5 138 340 31 316
00007.M2TS 4609 (0x1201) 0x90 PGS deu (German) 1624,022 27 5 399 427 32 846
00007.M2TS 4610 (0x1202) 0x90 PGS spa (Spanish) 1624,022 24 4 822 263 29 689
00007.M2TS 4611 (0x1203) 0x90 PGS fra (French) 1624,022 25 5 024 829 30 800
<---- END FORUMS PASTE ---->

QUICK SUMMARY:

Disc Title: Miles Davis with Quincy Jones & the Gil Evans Orchestra Live at Montreux (1991) Blu-ray
Disc Size: 21 687 920 928 bytes
Protection: AACS
BD-Java: No
Playlist: 00005.MPLS
Size: 1 682 257 920 bytes
Length: 0:27:04
Total Bitrate: 8,29 Mbps
Video: MPEG-2 Video / 5987 kbps / 480i / 29,970 fps / 16:9
Audio: English / LPCM Audio / 2.0 / 48 kHz / 1536 kbps / 16-bit
Subtitle: English / 25,311 kbps
Subtitle: German / 26,597 kbps
Subtitle: Spanish / 23,754 kbps
Subtitle: French / 24,751 kbps

********************
PLAYLIST: 00004.MPLS
********************

<--- BEGIN FORUMS PASTE --->
Код:
Total Video
Title Codec Length Movie Size Disc Size Bitrate Bitrate Main Audio Track Secondary Audio Track
----- ------ ------- -------------- -------------- ------- ------- ------------------ ---------------------
00004.MPLS AVC 0:00:21 9 443 328 21 687 920 928 3,59 3,33
Код:
DISC INFO:

Disc Title: Miles Davis with Quincy Jones & the Gil Evans Orchestra Live at Montreux (1991) Blu-ray
Disc Size: 21 687 920 928 bytes
Protection: AACS
BD-Java: No
BDInfo: 0.5.6

PLAYLIST REPORT:

Name: 00004.MPLS
Length: 0:00:21 (h:m:s)
Size: 9 443 328 bytes
Total Bitrate: 3,59 Mbps

VIDEO:

Codec Bitrate Description
----- ------- -----------
MPEG-4 AVC Video 3327 kbps 1080i / 29,970 fps / 16:9 / High Profile 4.1

FILES:

Name Time In Length Size Total Bitrate
---- ------- ------ ---- -------------
00005.M2TS 0:00:00.000 0:00:10.510 4 841 472 3 685
00006.M2TS 0:00:10.510 0:00:10.510 4 601 856 3 503

CHAPTERS:

Number Time In Length Avg Video Rate Max 1-Sec Rate Max 1-Sec Time Max 5-Sec Rate Max 5-Sec Time Max 10Sec Rate Max 10Sec Time Avg Frame Size Max Frame Size Max Frame Time
------ ------- ------ -------------- -------------- -------------- -------------- -------------- -------------- -------------- -------------- -------------- --------------
1 0:00:00.000 0:00:21.020 3 327 kbps 6 302 kbps 00:00:09.509 3 947 kbps 00:00:06.840 3 597 kbps 00:00:01.701 13 875 bytes 200 073 bytes 00:00:18.918

STREAM DIAGNOSTICS:

File PID Type Codec Language Seconds Bitrate Bytes Packets
---- --- ---- ----- -------- -------------- -------------- ------------- -----
00005.M2TS 4113 (0x1011) 0x1B AVC 10,410 3 448 4 486 469 24 858
00006.M2TS 4113 (0x1011) 0x1B AVC 10,410 3 270 4 254 964 23 596
<---- END FORUMS PASTE ---->

QUICK SUMMARY:

Disc Title: Miles Davis with Quincy Jones & the Gil Evans Orchestra Live at Montreux (1991) Blu-ray
Disc Size: 21 687 920 928 bytes
Protection: AACS
BD-Java: No
Playlist: 00004.MPLS
Size: 9 443 328 bytes
Length: 0:00:21
Total Bitrate: 3,59 Mbps
Video: MPEG-4 AVC Video / 3327 kbps / 1080i / 29,970 fps / 16:9 / High Profile 4.1

********************
PLAYLIST: 00003.MPLS
********************

<--- BEGIN FORUMS PASTE --->
Код:
Total Video
Title Codec Length Movie Size Disc Size Bitrate Bitrate Main Audio Track Secondary Audio Track
----- ------ ------- -------------- -------------- ------- ------- ------------------ ---------------------
00003.MPLS AVC 0:00:20 44 697 600 21 687 920 928 17,83 15,21 LPCM 2.0 1536Kbps (48kHz/16-bit)
Код:
DISC INFO:

Disc Title: Miles Davis with Quincy Jones & the Gil Evans Orchestra Live at Montreux (1991) Blu-ray
Disc Size: 21 687 920 928 bytes
Protection: AACS
BD-Java: No
BDInfo: 0.5.6

PLAYLIST REPORT:

Name: 00003.MPLS
Length: 0:00:20 (h:m:s)
Size: 44 697 600 bytes
Total Bitrate: 17,83 Mbps

VIDEO:

Codec Bitrate Description
----- ------- -----------
MPEG-4 AVC Video 15214 kbps 1080i / 29,970 fps / 16:9 / High Profile 4.1

AUDIO:

Codec Language Bitrate Description
----- -------- ------- -----------
LPCM Audio English 1536 kbps 2.0 / 48 kHz / 1536 kbps / 16-bit

FILES:

Name Time In Length Size Total Bitrate
---- ------- ------ ---- -------------
00003.M2TS 0:00:00.000 0:00:20.053 44 697 600 17 831

CHAPTERS:

Number Time In Length Avg Video Rate Max 1-Sec Rate Max 1-Sec Time Max 5-Sec Rate Max 5-Sec Time Max 10Sec Rate Max 10Sec Time Avg Frame Size Max Frame Size Max Frame Time
------ ------- ------ -------------- -------------- -------------- -------------- -------------- -------------- -------------- -------------- -------------- --------------
1 0:00:00.000 0:00:20.053 15 214 kbps 32 421 kbps 00:00:08.141 27 674 kbps 00:00:04.771 24 839 kbps 00:00:03.436 63 455 bytes 324 912 bytes 00:00:08.308

STREAM DIAGNOSTICS:

File PID Type Codec Language Seconds Bitrate Bytes Packets
---- --- ---- ----- -------- -------------- -------------- ------------- -----
00003.M2TS 4113 (0x1011) 0x1B AVC 19,953 15 290 38 136 751 208 048
00003.M2TS 4352 (0x1100) 0x80 LPCM eng (English) 19,953 1 549 3 864 676 24 054
<---- END FORUMS PASTE ---->

QUICK SUMMARY:

Disc Title: Miles Davis with Quincy Jones & the Gil Evans Orchestra Live at Montreux (1991) Blu-ray
Disc Size: 21 687 920 928 bytes
Protection: AACS
BD-Java: No
Playlist: 00003.MPLS
Size: 44 697 600 bytes
Length: 0:00:20
Total Bitrate: 17,83 Mbps
Video: MPEG-4 AVC Video / 15214 kbps / 1080i / 29,970 fps / 16:9 / High Profile 4.1
Audio: English / LPCM Audio / 2.0 / 48 kHz / 1536 kbps / 16-bit
Any questions - support@pro-jazz.com. Есть вопросы - support@pro-jazz.com
499
16:01