Вы используете незарегистрированную версию компонента "Вкладки"!

Поиск

2012 McCoy Tyner Trio with special guest Ravi Coltrane - Jazz a Vienne [HDTV 1080i]

2012  McCoy Tyner Trio with special guest Ravi Coltrane - Jazz a Vienne [HDTV 1080i]
Место проведения:
Vienne, France, Théâtre Antique
Состав:
  • McCoy Tyner - piano
  • RAVI COLTRANE - tenor sax
  • GERALD CANNON - bass
  • MONTEZ COLEMAN - drums
Описание:

Продолжительность: 00:52:38
Год выпуска: 2012

Огромная Благодарность – greggr – за предоставленный материал, который был использован для создания релиза ...
Спасибо большое !!!
Качество: HDTV 1080i
Контейнер: MKV
Видео кодек: H.264
Аудио кодек: MPEG
Видео: 6 248 Kbps, 1920 x 1080 (16:9), at 25.000 fps, AVC (Component) (Main@L4.0) (CABAC / 4 Ref Frames)
Аудио: 256 Kbps, 48.0 KHz, 2 channels, MPEG Audio (MP2) (Version 1) (Layer 2) (Joint stereo / Intensity Stereo + MS Stereo)
Источник: ts > Cypheros TS-Doctor > mkv

Отчёт DVDInfo/MediaInfo/BDInfo
General
Unique ID : 76871848565308301405056796158770958249 (0x39D4FAC0B94F4D6A1709C7B8837A4FA9)
Complete name : K:\rutracker.org_mezzo live HD\mezzo live HD_McCoy Tyner Trio feat Ravi Coltrane - Jazz a Vienne 2012.mkv
Format : Matroska
Format version : Version 1
File size : 2.44 GiB
Duration : 52mn 38s
Overall bit rate mode : Variable
Overall bit rate : 6 636 Kbps
Encoded date : UTC 2013-03-26 12:48:04
Writing library : Haali DirectShow Matroska Muxer 1.9.42.1

Video
ID : 1
Format : AVC
Format/Info : Advanced Video Codec
Format profile : Main@L4.0
Format settings, CABAC : Yes
Format settings, ReFrames : 4 frames
Format settings, GOP : M=3, N=30
Codec ID : V_MPEG4/ISO/AVC
Duration : 52mn 38s
Bit rate mode : Variable
Bit rate : 6 248 Kbps
Maximum bit rate : 40.0 Mbps
Width : 1 920 pixels
Height : 1 080 pixels
Display aspect ratio : 16:9
Frame rate mode : Variable
Frame rate : 25.000 fps
Standard : Component
Color space : YUV
Chroma subsampling : 4:2:0
Bit depth : 8 bits
Scan type : Interlaced
Scan order : Top Field First
Bits/(Pixel*Frame) : 0.121
Stream size : 2.30 GiB (94%)
Title : PID 4113 Video
Default : No
Forced : No
Color primaries : BT.709-5, BT.1361, IEC 61966-2-4, SMPTE RP177
Transfer characteristics : BT.709-5, BT.1361
Matrix coefficients : BT.709-5, BT.1361, IEC 61966-2-4 709, SMPTE RP177

Audio
ID : 2
Format : MPEG Audio
Format version : Version 1
Format profile : Layer 2
Mode : Joint stereo
Mode extension : Intensity Stereo + MS Stereo
Codec ID : A_MPEG/L2
Codec ID/Hint : MP2
Duration : 52mn 38s
Bit rate mode : Constant
Bit rate : 256 Kbps
Channel(s) : 2 channels
Sampling rate : 48.0 KHz
Compression mode : Lossy
Delay relative to video : 38ms
Stream size : 96.4 MiB (4%)
Title : MPEG1
Default : Yes
Forced : No
Any questions - support@pro-jazz.com. Есть вопросы - support@pro-jazz.com
240
Нет комментариев. Ваш будет первым!