Вы используете незарегистрированную версию компонента "Вкладки"!

Поиск

2012 WDR Big Band - The Music Of Jaco Pastorius - Leverkusener Jazztage [HDTV 720p]

2012 WDR Big Band - The Music Of Jaco Pastorius - Leverkusener Jazztage [HDTV 720p]
Состав:

WDR Big Band

  • Vince Mendoza - conducted
  • Frank Chastenier - piano
  • Paul Shigihara - guitar
  • woodwinds: Johan Hörlen, Karolina Strassmayer, Olivier Peters, Paul Heller, Jens Neufang
  • trumpets: Wim Both, Rob Bruynen, Andy Haderer, John Marshall
  • trombones: Ludwig Nuss, Marshall Gilkes, Andy Hunter, Mattis Cederberg
Описание:

Релиз уважаемого Lewojazz ~ dimeadozen
Спасибо ему большое !!!

Качество: HDTV 720p
Контейнер: TS
Видео кодек: H.264
Аудио кодек: AC3
Видео: 8 534 Kbps, 1280*720 (16:9), at 50.000 fps, AVC (High@L3.2) (CABAC / 4 Ref Frames)
Аудио: German, 448 Kbps, 48.0 KHz, 16 bits, 2 channels, AC-3

Отчёт DVDInfo/MediaInfo/BDInfo
General
ID : 1 (0x1)
Complete name : C:\rutracker.org_HD\WDR HD_WDR Big Band ''the music of Jaco Pastorius'' - Leverkusener 2012.ts
Format : MPEG-TS
File size : 3.88 GiB
Duration : 58mn 46s
Overall bit rate mode : Variable
Overall bit rate : 9 454 Kbps

Video
ID : 5501 (0x157D)
Menu ID : 1 (0x1)
Format : AVC
Format/Info : Advanced Video Codec
Format profile : High@L3.2
Format settings, CABAC : Yes
Format settings, ReFrames : 4 frames
Format settings, GOP : M=3, N=16
Codec ID : 27
Duration : 58mn 46s
Bit rate : 8 534 Kbps
Width : 1 280 pixels
Height : 720 pixels
Display aspect ratio : 16:9
Frame rate : 50.000 fps
Color space : YUV
Chroma subsampling : 4:2:0
Bit depth : 8 bits
Scan type : Progressive
Bits/(Pixel*Frame) : 0.185
Stream size : 3.50 GiB (90%)

Audio
ID : 5506 (0x1582)
Menu ID : 1 (0x1)
Format : AC-3
Format/Info : Audio Coding 3
Mode extension : CM (complete main)
Format settings, Endianness : Big
Codec ID : 6
Duration : 58mn 46s
Bit rate mode : Constant
Bit rate : 448 Kbps
Channel(s) : 2 channels
Channel positions : Front: L R
Sampling rate : 48.0 KHz
Bit depth : 16 bits
Compression mode : Lossy
Stream size : 188 MiB (5%)
Language : German
Any questions - support@pro-jazz.com. Есть вопросы - support@pro-jazz.com
311
Нет комментариев. Ваш будет первым!