Поиск

2012 Dominic Miller & Band - 33. Leverkusener Jazztage [HDTV 720p]

2012 Dominic Miller & Band - 33. Leverkusener Jazztage [HDTV 720p]
Место проведения:
Germany
Дата издания диска (записи):
2012
Время звучания:
00:59:46
Состав:
  • Dominic Miller - guitars
  • Sebastian Studnitzky - trumpet
  • Nicolas Fiszman - bass
  • Mike Lindup - piano, keyboards
  • Rhani Krija - drums, percussion
Треклист:

01. Ripped Nylon
02. Otis
03. Yes
04. Tokyo
05. Solent
06. Shape Of My Heart
07. Baden / Day In The Life
08. Catalan
09. Q. / Sharp
10. Fields of Gold
11. Rush Hour
12. ? ? ?

Описание:

Качество: HDTV 720p
Контейнер: MKV
Видео кодек: H.264
Аудио кодек: AC3
Видео: 8 435 Kbps, 1280 x 720 (16:9), at 50.000 fps, AVC (High@L3.2) (CABAC / 4 Ref Frames)
Аудио: German, 448 Kbps, 48.0 KHz, 16 bits, 2 channels, AC-3
Источник: Digital Satellite > SkyStar HD2 (TechniSat) > ts > raw data to HDD > Cypheros TS-Doctor > mkv

Отчёт DVDInfo/MediaInfo/BDInfo
General
Unique ID : 179474705589171197679281882910908112495 (0x8705922B7210EE55F8E0AC73734A5E6F)
Complete name : K:\rutracker.org_HD\WDR HD_Dominic Miller & Band - Leverkusener Jazztage 2012.mkv
Format : Matroska
Format version : Version 1
File size : 3.78 GiB
Duration : 59mn 46s
Overall bit rate : 9 064 Kbps
Encoded date : UTC 2013-03-19 09:50:28
Writing library : Haali DirectShow Matroska Muxer 1.9.42.1

Video
ID : 1
Format : AVC
Format/Info : Advanced Video Codec
Format profile : High@L3.2
Format settings, CABAC : Yes
Format settings, ReFrames : 4 frames
Codec ID : V_MPEG4/ISO/AVC
Duration : 59mn 46s
Bit rate : 8 435 Kbps
Width : 1 280 pixels
Height : 720 pixels
Display aspect ratio : 16:9
Frame rate : 50.000 fps
Color space : YUV
Chroma subsampling : 4:2:0
Bit depth : 8 bits
Scan type : Progressive
Bits/(Pixel*Frame) : 0.183
Stream size : 3.52 GiB (93%)
Title : PID 5501 Video
Language : English
Default : No
Forced : No

Audio
ID : 2
Format : AC-3
Format/Info : Audio Coding 3
Mode extension : CM (complete main)
Codec ID : A_AC3
Duration : 59mn 46s
Bit rate mode : Constant
Bit rate : 448 Kbps
Channel(s) : 2 channels
Channel positions : Front: L R
Sampling rate : 48.0 KHz
Bit depth : 16 bits
Compression mode : Lossy
Delay relative to video : 37ms
Stream size : 192 MiB (5%)
Title : AC3
Language : German
Default : Yes
Forced : No
Скриншоты видео
2012 Dominic Miller & Band - 33. Leverkusener Jazztage [HDTV 720p] 02012 Dominic Miller & Band - 33. Leverkusener Jazztage [HDTV 720p] 12012 Dominic Miller & Band - 33. Leverkusener Jazztage [HDTV 720p] 22012 Dominic Miller & Band - 33. Leverkusener Jazztage [HDTV 720p] 32012 Dominic Miller & Band - 33. Leverkusener Jazztage [HDTV 720p] 42012 Dominic Miller & Band - 33. Leverkusener Jazztage [HDTV 720p] 5
По всем вопросам пишите личное сообщение пользователю M0p94ok.
502
Нет комментариев. Ваш будет первым!