Вы используете незарегистрированную версию компонента "Вкладки"!

Поиск

1998 Michel Petrucciani Trio - Live In Concert [HDTV 1080i]

1998 Michel Petrucciani Trio - Live In Concert [HDTV 1080i]
Состав:
  • Michael Petrucciani (p)
  • Antony Jackson (b)
  • Steve Gadd (dr)
Описание:

Продолжительность: 00:59:38
Год выпуска: Stuttgart ,1998

Качество: HDTV 1080i
Контейнер: TS
Видео кодек: H.264
Аудио кодек: AC3
Видео: H.264; 1920x1080; 5 089 Kbps; 25.000 fps
Аудио: AC-3; 192 Kbps; 48.0 KHz; 2 ch

Отчёт DVDInfo/MediaInfo/BDInfo
Complete name : Michel Petrucciani Trio.ts
Format : MPEG-TS
File size : 2.32 GiB
Duration : 59mn 38s
Overall bit rate mode : Variable
Overall bit rate : 5 558 Kbps

Video
ID : 166 (0xA6)
Menu ID : 9027 (0x2343)
Format : AVC
Format/Info : Advanced Video Codec
Format profile : High@L4.0
Format settings, CABAC : Yes
Format settings, ReFrames : 4 frames
Codec ID : 27
Duration : 59mn 38s
Bit rate : 5 089 Kbps
Width : 1 920 pixels
Height : 1 080 pixels
Display aspect ratio : 16:9
Frame rate : 25.000 fps
Color space : YUV
Chroma subsampling : 4:2:0
Bit depth : 8 bits
Scan type : MBAFF
Bits/(Pixel*Frame) : 0.098
Stream size : 2.12 GiB (92%)
Color primaries : BT.709
Transfer characteristics : BT.709
Matrix coefficients : BT.709

Audio
ID : 106 (0x6A)
Menu ID : 9027 (0x2343)
Format : AC-3
Format/Info : Audio Coding 3
Mode extension : CM (complete main)
Format settings, Endianness : Big
Codec ID : 6
Duration : 59mn 38s
Bit rate mode : Constant
Bit rate : 192 Kbps
Channel(s) : 2 channels
Channel positions : Front: L R
Sampling rate : 48.0 KHz
Bit depth : 16 bits
Compression mode : Lossy
Delay relative to video : 11ms
Stream size : 81.9 MiB (3%)
Language : French
Any questions - support@pro-jazz.com. Есть вопросы - support@pro-jazz.com
256
Нет комментариев. Ваш будет первым!