Вы используете незарегистрированную версию компонента "Вкладки"!

Поиск

2012 Terez Montcalm - Concert au Festival a Jazz a Sete [HDTV 1080i]

2012 Terez Montcalm - Concert au Festival a Jazz a Sete [HDTV 1080i]
Дата проведения концерта (записи):
12 июля 2012
Место проведения:
Theatre de la Mer
Состав:
  • Terez Montcalm
  • Geraldine Laurent
  • Jean-Sebastien Williams
  • Pierre De Bethmann
  • Christophe Wallemme
  • Steve Williams
Описание:

Жанр: jazz
Продолжительность: 58min49s

Качество: HDTV 1080i
Контейнер: TS
Видео кодек: H.264
Аудио кодек: MP2
Видео: h.264,1 920 *1080,~6 307 Kbps,25fps
Аудио: MPEG Audio,256 Kbps,48kHz,2ch

Отчёт DVDInfo/MediaInfo/BDInfo
Terez Montcalm Jazz a Sete.ts
Format : MPEG-TS
File size : 2.84 GiB
Duration : 58mn 49s
Overall bit rate : 6 907 Kbps
Video #2007
ID : 2007 (0x7D7)
Menu ID : 3507 (0xDB3)
Format : AVC
Format/Info : Advanced Video Codec
Format profile : Main@L4.0
Format settings, CABAC : Yes
Format settings, ReFrames : 3 frames
Format settings, GOP : M=3, N=30
Codec ID : 27
Duration : 58mn 48s
Bit rate : 6 307 Kbps
Width : 1 920 pixels
Height : 1 080 pixels
Display aspect ratio : 16:9
Frame rate : 25.000 fps
Color space : YUV
Chroma subsampling : 4:2:0
Bit depth : 8 bits
Scan type : MBAFF
Bits/(Pixel*Frame) : 0.122
Stream size : 2.59 GiB (91%)
Audio #3007
ID : 3007 (0xBBF)
Menu ID : 3507 (0xDB3)
Format : MPEG Audio
Format version : Version 1
Format profile : Layer 2
Mode : Joint stereo
Mode extension : Intensity Stereo + MS Stereo
Codec ID : 3
Duration : 58mn 49s
Bit rate mode : Constant
Bit rate : 256 Kbps
Channel(s) : 2 channels
Sampling rate : 48.0 KHz
Compression mode : Lossy
Delay relative to video : -507ms
Stream size : 108 MiB (4%)
Any questions - support@pro-jazz.com. Есть вопросы - support@pro-jazz.com
193
Нет комментариев. Ваш будет первым!