Поиск

2012 Marc Ribot & Los Cubanos Postizos - Jazz A Porquerolles [HDTV 1080i]

2012 Marc Ribot & Los Cubanos Postizos - Jazz A Porquerolles [HDTV 1080i]
Состав:
  • Marc Ribot
  • Brad Jones
  • Anthony Coleman
  • Ej Rodriguez
  • Horacio "el Negro" Hernandez
Треклист:

-Improvisation
-Fiesta en el solar
-Dame un cachito pa'huele
-Como se goza en el barrio
-Postizo
-Carmela dame la llave
-No me llores mas
-Choserito Plena
-Aqui como alla
-El divorcio
-Baile baile baile

Описание:

Продолжительность: 1h21min
Год выпуска: 2012

Качество: HDTV 1080i
Контейнер: TS
Видео кодек: H.264
Аудио кодек: MP2
Видео: h.264,1 920 *1 080,~ 8 414 Kbps,25.000 fps
Аудио: MPEG Audio ,256 Kbps,48.0 KHz,2 channels

Отчёт DVDInfo/MediaInfo/BDInfo
Video #323
ID : 323 (0x143)
Menu ID : 14103 (0x3717)
Format : AVC
Format/Info : Advanced Video Codec
Format profile : Main@L4.0
Format settings, CABAC : Yes
Format settings, ReFrames : 3 frames
Format settings, GOP : M=4, N=32
Codec ID : 27
Duration : 1h 21mn
Bit rate : 8 414 Kbps
Width : 1 920 pixels
Height : 1 080 pixels
Display aspect ratio : 16:9
Frame rate : 25.000 fps
Standard : Component
Color space : YUV
Chroma subsampling : 4:2:0
Bit depth : 8 bits
Scan type : Interlaced
Scan order : Top Field First
Bits/(Pixel*Frame) : 0.162
Stream size : 4.78 GiB (92%)
Color primaries : BT.709
Transfer characteristics : BT.709
Matrix coefficients : BT.709
Audio #403
ID : 403 (0x193)
Menu ID : 14103 (0x3717)
Format : MPEG Audio
Format version : Version 1
Format profile : Layer 2
Codec ID : 4
Duration : 1h 21mn
Bit rate mode : Constant
Bit rate : 256 Kbps
Channel(s) : 2 channels
Sampling rate : 48.0 KHz
Compression mode : Lossy
Delay relative to video : -1s 33ms
Stream size : 149 MiB (3%)
Language : French
Language, more info : Clean effects
Скриншоты видео
2012 Marc Ribot & Los Cubanos Postizos - Jazz A Porquerolles [HDTV 1080i] 02012 Marc Ribot & Los Cubanos Postizos - Jazz A Porquerolles [HDTV 1080i] 12012 Marc Ribot & Los Cubanos Postizos - Jazz A Porquerolles [HDTV 1080i] 22012 Marc Ribot & Los Cubanos Postizos - Jazz A Porquerolles [HDTV 1080i] 3
Download available for power users only.
414
Нет комментариев. Ваш будет первым!