Вы используете незарегистрированную версию компонента "Вкладки"!

Поиск

2010 VA - An Evening With Dave Grusin [BDRip 720p]

2010 VA - An Evening With Dave Grusin [BDRip 720p]
Описание:

Жанр: Jazz, Documentary
Продолжительность: 1:02:31
Год выпуска: 2010

Качество: BDRip 720p
Контейнер: MKV
Видео кодек: H.264
Аудио кодек: DTS
Видео: AVC, 1280x720, 16:9, 5999 Kbps, 29.97 fps
Аудио: DTS, 1510 Kbps, 48 KHz, 6 ch

Отчёт DVDInfo/MediaInfo/BDInfo
General
Unique ID : 225193040347295272874156859574814214622 (0xA96A9A1A8682613E96133F20C8D389DE)
Complete name : K:\An.Evening.With.Dave.Grusin.2010.720p.MBluRay.x264-LOUNGE\An.Evening.With.Dave.Grusin.2010.720p.mkv
Format : Matroska
Format version : Version 2
File size : 3.28 GiB
Duration : 1h 2mn
Overall bit rate : 7 509 Kbps
Encoded date : UTC 2012-11-27 15:52:20
Writing application : mkvmerge v5.7.0 ('The Whirlwind') built on Jul 8 2012 20:08:51
Writing library : libebml v1.2.3 + libmatroska v1.3.0

Video
ID : 1
Format : AVC
Format/Info : Advanced Video Codec
Format profile : High@L4.1
Format settings, CABAC : Yes
Format settings, ReFrames : 5 frames
Codec ID : V_MPEG4/ISO/AVC
Duration : 1h 2mn
Bit rate : 5 999 Kbps
Width : 1 280 pixels
Height : 720 pixels
Display aspect ratio : 16:9
Frame rate : 29.970 fps
Color space : YUV
Chroma subsampling : 4:2:0
Bit depth : 8 bits
Scan type : Progressive
Bits/(Pixel*Frame) : 0.217
Stream size : 2.55 GiB (78%)
Writing library : x264 core 129 r2230 1cffe9f
Encoding settings : cabac=1 / ref=5 / deblock=1:0:0 / analyse=0x3:0x133 / me=umh / subme=8 / psy=1 / psy_rd=1.00:0.00 / mixed_ref=1 / me_range=16 / chroma_me=1 / trellis=1 / 8x8dct=1 / cqm=0 / deadzone=21,11 / fast_pskip=0 / chroma_qp_offset=-2 / threads=12 / lookahead_threads=2 / sliced_threads=0 / nr=0 / decimate=1 / interlaced=0 / bluray_compat=0 / constrained_intra=0 / bframes=3 / b_pyramid=2 / b_adapt=1 / b_bias=0 / direct=1 / weightb=1 / open_gop=0 / weightp=2 / keyint=250 / keyint_min=25 / scenecut=40 / intra_refresh=0 / rc_lookahead=40 / rc=2pass / mbtree=1 / bitrate=5999 / ratetol=1.0 / qcomp=0.60 / qpmin=0 / qpmax=69 / qpstep=4 / cplxblur=20.0 / qblur=0.5 / ip_ratio=1.40 / aq=1:1.00
Language : English
Default : Yes
Forced : No

Audio
ID : 2
Format : DTS
Format/Info : Digital Theater Systems
Codec ID : A_DTS
Duration : 1h 2mn
Bit rate mode : Constant
Bit rate : 1 510 Kbps
Channel(s) : 6 channels
Channel positions : Front: L C R, Side: L R, LFE
Sampling rate : 48.0 KHz
Bit depth : 24 bits
Compression mode : Lossy
Stream size : 675 MiB (20%)
Default : Yes
Forced : No

Menu
00:00:00.000 : en:00:00:00.000
00:01:55.148 : en:00:01:55.148
00:06:25.652 : en:00:06:25.652
00:12:08.828 : en:00:12:08.828
00:17:33.953 : en:00:17:33.953
00:24:59.965 : en:00:24:59.965
00:31:22.748 : en:00:31:22.748
00:37:39.357 : en:00:37:39.357
00:43:43.588 : en:00:43:43.588
00:48:38.749 : en:00:48:38.749
00:53:17.561 : en:00:53:17.561
00:55:03.400 : en:00:55:03.400
01:00:58.488 : en:01:00:58.488
Any questions - support@pro-jazz.com. Есть вопросы - support@pro-jazz.com
221
Нет комментариев. Ваш будет первым!