Вы используете незарегистрированную версию компонента "Вкладки"!

Поиск

2011 Magnus Öström Quartet - Live At Jazz Baltica [HDTVRip 720p]

2011 Magnus Öström Quartet - Live At Jazz Baltica [HDTVRip 720p]
Состав:
  • Magnus Öström - Drums
  • Andreas Hourdakis - Guitar
  • Gustaf Karlöf - Piano, Keyboard
  • Tobias Gabrielson - Bass
Описание:

Продолжительность: 1:02:20
Год выпуска: 2011

Качество: HDTVRip 720p
Контейнер: MKV
Видео кодек: H.264
Аудио кодек: AC3
Видео: AVC, 1248x712, 16:9, 6500 Kbps, 25fps
Аудио: AC3, 448 Kbps, 48 kHz, 2 ch

Отчёт DVDInfo/MediaInfo/BDInfo
General
Unique ID : 170423481242185508598768365790989989698 (0x80365E5AF0226E4896BCC9815F9D3742)
Complete name : K:\Magnus_Oestroem_Quartet-Live_At_Jazz_Baltica_(2011)-720p-x264-2012-gFViD\magnus_oestroem_quartet-live_at_jazz_baltica_(2011)-720p-x264-2012.mkv
Format : Matroska
Format version : Version 2
File size : 3.03 GiB
Duration : 1h 2mn
Overall bit rate : 6 950 Kbps
Encoded date : UTC 2012-11-04 00:57:43
Writing application : mkvmerge v5.8.0 ('No Sleep / Pillow') built on Sep 2 2012 15:37:04
Writing library : libebml v1.2.3 + libmatroska v1.3.0

Video
ID : 1
Format : AVC
Format/Info : Advanced Video Codec
Format profile : High@L4.1
Format settings, CABAC : Yes
Format settings, ReFrames : 4 frames
Codec ID : V_MPEG4/ISO/AVC
Duration : 1h 2mn
Bit rate : 6 500 Kbps
Width : 1 248 pixels
Height : 712 pixels
Display aspect ratio : 16:9
Frame rate : 25.000 fps
Color space : YUV
Chroma subsampling : 4:2:0
Bit depth : 8 bits
Scan type : Progressive
Bits/(Pixel*Frame) : 0.293
Stream size : 2.77 GiB (92%)
Writing library : x264 core 128 r2216 198a7ea
Encoding settings : cabac=1 / ref=4 / deblock=1:0:0 / analyse=0x3:0x113 / me=umh / subme=9 / psy=1 / psy_rd=1.00:0.00 / mixed_ref=1 / me_range=32 / chroma_me=1 / trellis=1 / 8x8dct=1 / cqm=0 / deadzone=21,11 / fast_pskip=1 / chroma_qp_offset=-2 / threads=6 / lookahead_threads=1 / sliced_threads=0 / nr=0 / decimate=1 / interlaced=0 / bluray_compat=0 / constrained_intra=0 / bframes=3 / b_pyramid=2 / b_adapt=1 / b_bias=0 / direct=1 / weightb=1 / open_gop=0 / weightp=2 / keyint=250 / keyint_min=25 / scenecut=40 / intra_refresh=0 / rc_lookahead=40 / rc=2pass / mbtree=1 / bitrate=6500 / ratetol=1.0 / qcomp=0.60 / qpmin=0 / qpmax=69 / qpstep=4 / cplxblur=20.0 / qblur=0.5 / ip_ratio=1.40 / aq=1:1.00
Default : Yes
Forced : No

Audio
ID : 2
Format : AC-3
Format/Info : Audio Coding 3
Mode extension : CM (complete main)
Format settings, Endianness : Big
Codec ID : A_AC3
Duration : 1h 2mn
Bit rate mode : Constant
Bit rate : 448 Kbps
Channel(s) : 2 channels
Channel positions : Front: L R
Sampling rate : 48.0 KHz
Bit depth : 16 bits
Compression mode : Lossy
Delay relative to video : 86ms
Stream size : 200 MiB (6%)
Default : Yes
Forced : No
Any questions - support@pro-jazz.com. Есть вопросы - support@pro-jazz.com
237
Нет комментариев. Ваш будет первым!