Поиск

2015 Vincent Peirani - Living Being [HDTV 1080i]

2015 Vincent Peirani - Living Being [HDTV 1080i]
Дата проведения концерта (записи):
16 января 2015
Место проведения:
Theatre Simone Signoret de Conflans-Sainte-Honorine
Время звучания:
00:59:38
Главы (разбивка по трекам):
нет
Состав:
  • Vincent Peirani - accordeon
  • Emile Parisien - saxophones
  • Yoann Serra - drums
  • Tony Paeleman - fender rhodes
  • Julien Herne - bass
Видео:
AVC, 1920*1080 (16:9), 4951kbps, 25fps
Аудио#1:
MP2, 256kbps, 48kHz, 2ch
Отчёт DVDInfo/MediaInfo/BDInfo
Общее
Уникальный идентификатор : 194598755943046460596974317177288607094 (0x92665B6C4A324E52F117228185294576)
Полное имя : \\NASF8F4EB\Videos\HD Video\Vincent Peirani\2015 Vincent Peirani - Living Being [HDTV 1080i]\2015 Vincent Peirani - Living Being.mkv
Формат : Matroska
Версия формата : Version 2
Размер файла : 2,21 Гбайт
Продолжительность : 59 м. 38 с.
Общий поток : 5313 Кбит/сек
Программа кодирования : Lavf54.63.104
Библиотека кодирования : Lavf54.63.104

Видео
Идентификатор : 1
Формат : AVC
Формат/Информация : Advanced Video Codec
Профиль формата : High@L4
Настройки формата : CABAC / 4 Ref Frames
Параметр CABAC формата : Да
Параметр RefFrames формата : 4 кадра
Параметр GOP формата : M=4, N=28
Идентификатор кодека : V_MPEG4/ISO/AVC
Продолжительность : 59 м. 38 с.
Битрейт : 4951 Кбит/сек
Ширина : 1920 пикселей
Высота : 1080 пикселей
Соотношение сторон : 16:9
Режим частоты кадров : Постоянный
Частота кадров : 25,000 кадров/сек
Стандарт вещания : Component
Цветовое пространство : YUV
Субдискретизация насыщенности : 4:2:0
Битовая глубина : 8 бит
Тип развёртки : Чересстрочная
Метод сохранения типа развёртки : Раздельные поля
Порядок развёртки : Верхнее поле первое
Бит/(Пиксели*Кадры) : 0.096
Размер потока : 2,06 Гбайт (93%)
Default : Нет
Forced : Нет
Цветовой диапазон : Limited
Основные цвета : BT.709
Характеристики трансфера : BT.709
Коэффициенты матрицы : BT.709

Аудио
Идентификатор : 2
Формат : MPEG Audio
Версия формата : Version 1
Профиль формата : Layer 2
Идентификатор кодека : A_MPEG/L2
Идентификатор кодека/Подсказка : MP2
Продолжительность : 59 м. 38 с.
Вид битрейта : Постоянный
Битрейт : 256 Кбит/сек
Каналы : 2 канала
Частота : 48,0 КГц
Метод сжатия : С потерями
Размер потока : 109 Мбайт (5%)
Язык : Russian
Default : Да
Forced : Нет
Download available for power users only.
331
Нет комментариев. Ваш будет первым!