Поиск

2019 Pollon Trio - WDR 3 Jazzfest [HDTVRip 720p]

2019 Pollon Trio - WDR 3 Jazzfest [HDTVRip 720p]
Время звучания:
01:03:40
Главы (разбивка по трекам):
нет
Состав:
  • Theresia Philipp (saxophone, clarinette)
  • David Helm (basse)
  • Thomas Sauerborn (batterie) 
Видео:
AVC,1280*720p (16:9), 2252kbps, 25fps
Аудио#1:
AAC, 125-285kbps, 48kHz, 2ch
Отчёт DVDInfo/MediaInfo/BDInfo
Общее
Полное имя : \\NASF8F4EB\Videos\HD Video\Pollon Trio\2019 Pollon Trio - WDR 3 Jazzfest [HDTVRip 720p]\2019 Pollon Trio - WDR 3 Jazzfest [HDTVRip 720p].mp4
Формат : MPEG-4
Профиль формата : Base Media / Version 2
Идентификатор кодека : mp42 (isom/mp42)
Размер файла : 1,06 Гбайт
Продолжительность : 1 ч. 3 м.
Режим общего битрейта : Переменный
Общий поток : 2382 Кбит/сек
Дата кодирования : UTC 2019-02-08 10:01:39
Дата пометки : UTC 2019-02-08 10:01:39

Видео
Идентификатор : 1
Формат : AVC
Формат/Информация : Advanced Video Codec
Профиль формата : Main@L3.1
Настройки формата : CABAC / 3 Ref Frames
Параметр CABAC формата : Да
Параметр RefFrames формата : 3 кадра
Параметр GOP формата : M=4, N=33
Идентификатор кодека : avc1
Идентификатор кодека/Информация : Advanced Video Coding
Продолжительность : 1 ч. 3 м.
Битрейт : 2252 Кбит/сек
Ширина : 1280 пикселей
Высота : 720 пикселей
Соотношение сторон : 16:9
Режим частоты кадров : Постоянный
Частота кадров : 25,000 кадров/сек
Стандарт вещания : PAL
Цветовое пространство : YUV
Субдискретизация насыщенности : 4:2:0
Битовая глубина : 8 бит
Тип развёртки : Прогрессивная
Бит/(Пиксели*Кадры) : 0.098
Размер потока : 1,00 Гбайт (95%)
Дата кодирования : UTC 2019-02-08 10:01:40
Дата пометки : UTC 2019-02-08 10:01:40
Цветовой диапазон : Limited
Codec configuration box : avcC

Аудио
Идентификатор : 2
Формат : AAC LC
Формат/Информация : Advanced Audio Codec Low Complexity
Идентификатор кодека : mp4a-40-2
Продолжительность : 1 ч. 3 м.
Вид битрейта : Переменный
Битрейт : 125 Кбит/сек
Максимальный битрейт : 285 Кбит/сек
Каналы : 2 канала
Channel layout : L R
Частота : 48,0 КГц
Частота кадров : 46,875 кадров/сек (1024 SPF)
Метод сжатия : С потерями
Размер потока : 57,1 Мбайт (5%)
Дата кодирования : UTC 2019-02-08 10:01:40
Дата пометки : UTC 2019-02-08 10:01:40
По всем вопросам пишите личное сообщение пользователю M0p94ok.
356
Нет комментариев. Ваш будет первым!