Вы используете незарегистрированную версию компонента "Вкладки"!

Поиск

2019 Chanda Rule Quintet - at WDR 3 Jazzfest [HDTVRip 720p]

2019 Chanda Rule Quintet - at WDR 3 Jazzfest [HDTVRip 720p]
Дата проведения концерта (записи):
02.02.2019
Место проведения:
Theater Gütersloh, Theatersaal
Главы (разбивка по трекам):
нет
Состав:
  • Chanda Rule - voc; 
  • Kirk Lightsey - p; 
  • Thomas Kugi - sax; 
  • Wolfram Derschmidt - b; 
  • Dusan Novakov - dr
Видео:
AVC,1280*720p (16:9), 2224kbps, 25fps
Аудио#1:
AAC, 125-150kbps, 48kHz, 2ch
Отчёт DVDInfo/MediaInfo/BDInfo
Общее
Полное имя : \\NASF8F4EB\Videos\HD Video\Chanda Rule\2019 Chanda Rule Quintet - at WDR 3 Jazzfest [HDTVRip 720p]\2019 Chanda Rule Quintet - at WDR 3 Jazzfest [HDTVRip 720p].mp4
Формат : MPEG-4
Профиль формата : Base Media / Version 2
Идентификатор кодека : mp42 (isom/mp42)
Размер файла : 996 Мбайт
Продолжительность : 59 м. 8 с.
Режим общего битрейта : Переменный
Общий поток : 2354 Кбит/сек
Дата кодирования : UTC 2019-02-08 09:46:23
Дата пометки : UTC 2019-02-08 09:46:23

Видео
Идентификатор : 1
Формат : AVC
Формат/Информация : Advanced Video Codec
Профиль формата : Main@L3.1
Настройки формата : CABAC / 3 Ref Frames
Параметр CABAC формата : Да
Параметр RefFrames формата : 3 кадра
Идентификатор кодека : avc1
Идентификатор кодека/Информация : Advanced Video Coding
Продолжительность : 59 м. 8 с.
Битрейт : 2224 Кбит/сек
Ширина : 1280 пикселей
Высота : 720 пикселей
Соотношение сторон : 16:9
Режим частоты кадров : Постоянный
Частота кадров : 25,000 кадров/сек
Стандарт вещания : PAL
Цветовое пространство : YUV
Субдискретизация насыщенности : 4:2:0
Битовая глубина : 8 бит
Тип развёртки : Прогрессивная
Бит/(Пиксели*Кадры) : 0.097
Размер потока : 941 Мбайт (94%)
Дата кодирования : UTC 2019-02-08 09:46:24
Дата пометки : UTC 2019-02-08 09:46:24
Цветовой диапазон : Limited
Codec configuration box : avcC

Аудио
Идентификатор : 2
Формат : AAC LC
Формат/Информация : Advanced Audio Codec Low Complexity
Идентификатор кодека : mp4a-40-2
Продолжительность : 59 м. 8 с.
Вид битрейта : Переменный
Битрейт : 125 Кбит/сек
Максимальный битрейт : 150 Кбит/сек
Каналы : 2 канала
Channel layout : L R
Частота : 48,0 КГц
Частота кадров : 46,875 кадров/сек (1024 SPF)
Метод сжатия : С потерями
Размер потока : 53,1 Мбайт (5%)
Дата кодирования : UTC 2019-02-08 09:46:24
Дата пометки : UTC 2019-02-08 09:46:24
Any questions - support@pro-jazz.com. Есть вопросы - support@pro-jazz.com
201
Нет комментариев. Ваш будет первым!